<?xml version="1.0" standalone="no"?>
<!DOCTYPE svg PUBLIC "-//W3C//DTD SVG 1.1//EN" "http://www.w3.org/Graphics/SVG/1.1/DTD/svg11.dtd" >
<svg xmlns="http://www.w3.org/2000/svg">
<metadata>Generated by IcoMoon</metadata>
<defs>
<font id="pagelayer" horiz-adv-x="1024">
<font-face units-per-em="1024" ascent="960" descent="-64" />
<missing-glyph horiz-adv-x="1024" />
<glyph unicode="&#x20;" horiz-adv-x="512" d="" />
<glyph unicode="&#xe03d;" glyph-name="woo" d="M612.192 533.664c0 6.896-3.136 51.6-28 51.6-37.36 0-46.704-72.256-46.704-82.624 0-3.408 3.152-58.496 28.032-58.496 34.192 0.032 46.672 72.288 46.672 89.52zM814.384 533.664c0 6.896-3.152 51.6-28.032 51.6-37.28 0-46.608-72.256-46.608-82.624 0-3.408 3.072-58.496 27.952-58.496 34.192 0.032 46.688 72.288 46.688 89.52zM141.296 959.232c-68.224 0-123.504-55.488-123.504-123.92v-650.72c0-68.432 55.296-123.92 123.504-123.92h339.808l123.504-123.936v123.936h278.048c68.224 0 123.52 55.472 123.52 123.92v650.72c0 68.432-55.296 123.92-123.52 123.92h-741.36zM668.16 537.072c0-55.088-31.088-154.88-102.64-154.88-6.208 0-18.496 3.616-25.424 6.016-32.512 11.168-50.192 49.696-52.352 66.256 0 0-3.072 17.792-3.072 40.752 0 22.992 3.072 45.328 3.072 45.328 15.552 75.728 43.552 106.736 96.448 106.736 59.072 0.032 83.968-58.528 83.968-110.208zM486.496 657.6c0-3.392-43.552-141.168-43.552-213.424v-75.712c-2.592-12.080-4.16-24.144-21.824-24.144-46.608 0-88.88 151.472-92.016 161.84-6.208-6.896-62.24-161.84-96.448-161.84-24.864 0-43.552 113.648-46.608 123.936-9.344 55.072-26.048 157.52-26.048 164.416 0 20.672 1.152 38.736 26.048 38.736 6.208 0 21.6-6.064 23.712-17.168 11.648-62.032 16.688-120.512 29.168-185.968 1.856-2.928 1.504-7.008 4.56-10.432 3.152 10.288 66.928 168.784 94.96 168.784 22.544 0 30.4-44.592 33.536-61.824 6.208-20.656 13.088-55.216 22.416-82.752 0 13.776 12.48 203.12 65.392 203.12 18.592-0.032 26.704-6.928 26.704-27.568zM870.32 537.072c0-55.088-31.088-154.88-102.64-154.88-6.192 0-18.448 3.616-25.424 6.016-32.432 11.168-50.176 49.696-52.288 66.256 0 0-3.888 17.92-3.888 40.896s3.888 45.184 3.888 45.184c15.552 75.728 43.488 106.736 96.384 106.736 59.104 0.032 83.968-58.528 83.968-110.208z" />
<glyph unicode="&#xe900;" glyph-name="format_color_text" d="M410 426.667h204l-102 270zM470 810.667h84l234-598h-96l-46 128h-268l-48-128h-96zM0 84.667h1024v-170h-1024v170z" />
<glyph unicode="&#xe901;" glyph-name="font_download" d="M680 148.667h90l-218 556h-80l-218-556h90l48 128h240zM854 852.667q34 0 59-25t25-59v-684q0-34-25-59t-59-25h-684q-34 0-59 25t-25 59v684q0 34 25 59t59 25h684zM424 362.667l88 236 88-236h-176z" />
<glyph unicode="&#xe902;" glyph-name="header" d="M961.143 0c-50.286 0-101.143 4-152 4-50.286 0-100.571-4-150.857-4-19.429 0-28.571 21.143-28.571 37.714 0 50.857 57.143 29.143 86.857 48.571 18.857 12 18.857 60 18.857 80l-0.571 223.429c0 6.286 0 12-0.571 17.714-9.143 2.857-19.429 2.286-28.571 2.286h-385.714c-9.714 0-20 0.571-29.143-2.286-0.571-5.714-0.571-11.429-0.571-17.714l-0.571-212c0-21.714 0-81.143 21.143-93.714 29.714-18.286 97.143 7.429 97.143-44 0-17.143-8-40-28-40-53.143 0-106.286 4-158.857 4-48.571 0-97.143-4-145.714-4-18.857 0-27.429 21.714-27.429 37.714 0 49.714 52.571 29.143 80.571 48.571 18.286 12.571 18.857 61.714 18.857 81.714l-0.571 32.571v464.571c0 27.429 4 115.429-21.714 130.857-28.571 17.714-89.714-9.714-89.714 41.714 0 16.571 7.429 40 27.429 40 52.571 0 105.714-4 158.286-4 48 0 96.571 4 144.571 4 20.571 0 28.571-22.857 28.571-40 0-49.143-56.571-25.143-84.571-42.857-20-12-20-70.857-20-91.429l0.571-182.857c0-6.286 0-12 0.571-18.286 7.429-1.714 14.857-1.714 22.286-1.714h399.429c6.857 0 14.286 0 21.714 1.714 0.571 6.286 0.571 12 0.571 18.286l0.571 182.857c0 21.143 0 79.429-20 91.429-28.571 17.143-85.714-5.714-85.714 42.857 0 17.143 8 40 28.571 40 50.286 0 100.571-4 150.857-4 49.143 0 98.286 4 147.429 4 20.571 0 28.571-22.857 28.571-40 0-49.714-58.857-24.571-87.429-42.286-19.429-12.571-20-71.429-20-92l0.571-538.857c0-18.857 1.143-68.571 19.429-80 29.143-18.286 90.857 5.143 90.857-44.571 0-16.571-7.429-40-27.429-40z" />
<glyph unicode="&#xe903;" glyph-name="align-right" d="M1024 182.857v-73.143c0-20-16.571-36.571-36.571-36.571h-950.857c-20 0-36.571 16.571-36.571 36.571v73.143c0 20 16.571 36.571 36.571 36.571h950.857c20 0 36.571-16.571 36.571-36.571zM1024 402.286v-73.143c0-20-16.571-36.571-36.571-36.571h-731.429c-20 0-36.571 16.571-36.571 36.571v73.143c0 20 16.571 36.571 36.571 36.571h731.429c20 0 36.571-16.571 36.571-36.571zM1024 621.714v-73.143c0-20-16.571-36.571-36.571-36.571h-877.714c-20 0-36.571 16.571-36.571 36.571v73.143c0 20 16.571 36.571 36.571 36.571h877.714c20 0 36.571-16.571 36.571-36.571zM1024 841.143v-73.143c0-20-16.571-36.571-36.571-36.571h-658.286c-20 0-36.571 16.571-36.571 36.571v73.143c0 20 16.571 36.571 36.571 36.571h658.286c20 0 36.571-16.571 36.571-36.571z" />
<glyph unicode="&#xe904;" glyph-name="arrow-forward-outline" d="M170.667 85.376c-4.096 0-8.149 0.64-12.203 1.792-18.091 5.376-30.464 22.016-30.464 40.875v42.667c0 204.8 144.256 378.197 341.333 417.963v72.704c0 22.784 8.875 44.203 24.96 60.331 32.256 32.299 88.533 32.256 120.704 0.043l268.288-264.661c8.149-8.021 12.715-18.901 12.715-30.379s-4.565-22.357-12.715-30.379l-268.501-264.832c-31.829-31.829-88.192-32.043-120.448 0.213-16.128 16.128-25.003 37.547-25.003 60.331v61.312c-106.453-8.576-192.981-42.027-262.997-148.651-8.107-12.288-21.547-19.328-35.669-19.328zM512 340.907c11.179 0 42.667 0.427 42.667 0.427v-149.291l237.909 234.667-237.909 234.496v-149.205c0 0-16.384 0.171-38.016-2.219-145.749-16.128-261.333-122.197-294.059-259.413 90.496 73.728 194.176 88.149 289.408 90.539z" />
<glyph unicode="&#xe905;" glyph-name="arrow-back-outline" d="M817.664 104.662c-70.016 106.667-156.544 140.16-262.997 148.651v-61.312c0-22.784-8.875-44.203-25.003-60.331-32.256-32.256-88.619-32.043-120.448-0.213l-268.501 264.832c-8.149 8.064-12.715 18.944-12.715 30.421s4.565 22.357 12.715 30.379l268.288 264.661c32.171 32.213 88.448 32.256 120.704-0.043 16.085-16.128 24.96-37.547 24.96-60.331v-72.704c197.077-39.808 341.333-213.205 341.333-417.963v-42.667c0-18.859-12.373-35.499-30.464-40.875-4.053-1.152-8.107-1.792-12.203-1.792-14.123 0-27.563 7.040-35.669 19.285zM512.981 340.864c94.165-2.389 197.888-16.811 288.341-90.496-32.768 137.216-148.352 243.285-294.101 259.413-21.504 2.389-37.888 2.219-37.888 2.219v149.205l-237.909-234.496 237.909-234.667v149.291c0 0 31.488-0.427 43.648-0.469z" />
<glyph unicode="&#xe906;" glyph-name="columns" horiz-adv-x="951" d="M91.429 73.143h347.429v658.286h-365.714v-640c0-9.714 8.571-18.286 18.286-18.286zM877.714 91.428v640h-365.714v-658.286h347.429c9.714 0 18.286 8.571 18.286 18.286zM950.857 786.286v-694.857c0-50.286-41.143-91.429-91.429-91.429h-768c-50.286 0-91.429 41.143-91.429 91.429v694.857c0 50.286 41.143 91.429 91.429 91.429h768c50.286 0 91.429-41.143 91.429-91.429z" />
<glyph unicode="&#xe907;" glyph-name="quotes-right" d="M800 320c-123.712 0-224 100.29-224 224 0 123.712 100.288 224 224 224s224-100.288 224-224l1-32c0-247.424-200.576-448-448-448v128c85.474 0 165.834 33.286 226.274 93.726 11.634 11.636 22.252 24.016 31.83 37.020-11.438-1.8-23.16-2.746-35.104-2.746zM224 320c-123.71 0-224 100.29-224 224 0 123.712 100.29 224 224 224s224-100.288 224-224l1-32c0-247.424-200.576-448-448-448v128c85.474 0 165.834 33.286 226.274 93.726 11.636 11.636 22.254 24.016 31.832 37.020-11.44-1.8-23.16-2.746-35.106-2.746z" />
<glyph unicode="&#xe908;" glyph-name="list21" d="M384 896h640v-128h-640v128zM384 512h640v-128h-640v128zM384 128h640v-128h-640v128zM0 832c0 70.692 57.308 128 128 128s128-57.308 128-128c0-70.692-57.308-128-128-128s-128 57.308-128 128zM0 448c0 70.692 57.308 128 128 128s128-57.308 128-128c0-70.692-57.308-128-128-128s-128 57.308-128 128zM0 64c0 70.692 57.308 128 128 128s128-57.308 128-128c0-70.692-57.308-128-128-128s-128 57.308-128 128z" />
<glyph unicode="&#xe909;" glyph-name="download2" d="M896 448h-160l-224-224-224 224h-160l-128-256v-64h1024v64l-128 256zM0 64h1024v-64h-1024v64zM576 640v256h-128v-256h-224l288-288 288 288h-224z" />
<glyph unicode="&#xe90a;" glyph-name="content_copy" d="M810 42.667v598h-468v-598h468zM810 724.667q34 0 60-25t26-59v-598q0-34-26-60t-60-26h-468q-34 0-60 26t-26 60v598q0 34 26 59t60 25h468zM682 896.667v-86h-512v-598h-84v598q0 34 25 60t59 26h512z" />
<glyph unicode="&#xe90b;" glyph-name="checkbox-unchecked" d="M896 960h-768c-70.4 0-128-57.6-128-128v-768c0-70.4 57.6-128 128-128h768c70.4 0 128 57.6 128 128v768c0 70.4-57.6 128-128 128zM896 64h-768v768h768v-768z" />
<glyph unicode="&#xe90c;" glyph-name="ungroup" d="M384 496c0-26.4-21.6-48-48-48h-96c-26.4 0-48 21.6-48 48v96c0 26.4 21.6 48 48 48h96c26.4 0 48-21.6 48-48v-96zM704 496c0-26.4-21.6-48-48-48h-96c-26.4 0-48 21.6-48 48v96c0 26.4 21.6 48 48 48h96c26.4 0 48-21.6 48-48v-96zM384 176c0-26.4-21.6-48-48-48h-96c-26.4 0-48 21.6-48 48v96c0 26.4 21.6 48 48 48h96c26.4 0 48-21.6 48-48v-96zM704 176c0-26.4-21.6-48-48-48h-96c-26.4 0-48 21.6-48 48v96c0 26.4 21.6 48 48 48h96c26.4 0 48-21.6 48-48v-96zM912.082 800l111.918 111.916v48.084h-48.082l-111.918-111.916-111.918 111.916h-48.082v-48.084l111.918-111.916-111.918-111.916v-48.084h48.082l111.918 111.916 111.918-111.916h48.082v48.084zM0 192h64v-128h-64v128zM0 384h64v-128h-64v128zM832 512h64v-128h-64v128zM832 128h64v-128h-64v128zM832 320h64v-128h-64v128zM0 576h64v-128h-64v128zM0 768h64v-128h-64v128zM512 832h128v-64h-128v64zM320 832h128v-64h-128v64zM128 832h128v-64h-128v64zM448 0h128v-64h-128v64zM640 0h128v-64h-128v64zM256 0h128v-64h-128v64zM64 0h128v-64h-128v64z" />
<glyph unicode="&#xe90d;" glyph-name="image" d="M959.884 832c0.040-0.034 0.082-0.076 0.116-0.116v-767.77c-0.034-0.040-0.076-0.082-0.116-0.116h-895.77c-0.040 0.034-0.082 0.076-0.114 0.116v767.772c0.034 0.040 0.076 0.082 0.114 0.114h895.77zM960 896h-896c-35.2 0-64-28.8-64-64v-768c0-35.2 28.8-64 64-64h896c35.2 0 64 28.8 64 64v768c0 35.2-28.8 64-64 64v0zM832 672c0-53.020-42.98-96-96-96s-96 42.98-96 96 42.98 96 96 96 96-42.98 96-96zM896 128h-768v128l224 384 256-320h64l224 192z" />
<glyph unicode="&#xe90e;" glyph-name="window" d="M128 704h64v64h-64v-64zM896 896h-768c-70.688 0-128-57.312-128-128v-768h1024v768c0 70.688-57.312 128-128 128zM960 64h-896v512h896v-512zM960 640h-896v128c0 35.328 28.672 64 64 64h768c35.328 0 64-28.672 64-64v-128zM864 768h-448c-17.664 0-32-14.336-32-32s14.336-32 32-32h448c17.696 0 32 14.336 32 32s-14.304 32-32 32zM256 704h64v64h-64v-64z" />
<glyph unicode="&#xe90f;" glyph-name="type" d="M896 960h-768c-17.664 0-32-14.336-32-32v-192c0-17.664 14.336-32 32-32h32c17.664 0 32 14.336 32 32l64 96h192v-768l-160-64c-17.664 0-32-14.304-32-32s14.336-32 32-32h448c17.696 0 32 14.304 32 32s-14.304 32-32 32l-160 64v768h192l64-96c0-17.664 14.304-32 32-32h32c17.696 0 32 14.336 32 32v192c0 17.664-14.304 32-32 32z" />
<glyph unicode="&#xe910;" glyph-name="film2" d="M0 832v-768h1024v768h-1024zM192 128h-128v128h128v-128zM192 384h-128v128h128v-128zM192 640h-128v128h128v-128zM768 128h-512v640h512v-640zM960 128h-128v128h128v-128zM960 384h-128v128h128v-128zM960 640h-128v128h128v-128zM384 640v-384l256 192z" />
<glyph unicode="&#xe911;" glyph-name="minus1" d="M768 469.334h-512c-47.104 0-85.333-38.229-85.333-85.333s38.229-85.333 85.333-85.333h512c47.104 0 85.333 38.229 85.333 85.333s-38.229 85.333-85.333 85.333z" />
<glyph unicode="&#xe912;" glyph-name="profile" d="M864 960h-768c-52.8 0-96-43.2-96-96v-832c0-52.8 43.2-96 96-96h768c52.8 0 96 43.2 96 96v832c0 52.8-43.2 96-96 96zM832 64h-704v768h704v-768zM256 384h448v-64h-448zM256 256h448v-64h-448zM320 672c0 53.019 42.981 96 96 96s96-42.981 96-96c0-53.019-42.981-96-96-96s-96 42.981-96 96zM480 576h-128c-52.8 0-96-28.8-96-64v-64h320v64c0 35.2-43.2 64-96 64z" />
<glyph unicode="&#xe913;" glyph-name="price-tags" horiz-adv-x="1280" d="M1232 960h-384c-26.4 0-63.274-15.274-81.942-33.942l-476.116-476.116c-18.668-18.668-18.668-49.214 0-67.882l412.118-412.118c18.668-18.668 49.214-18.668 67.882 0l476.118 476.118c18.666 18.666 33.94 55.54 33.94 81.94v384c0 26.4-21.6 48-48 48zM992 576c-53.020 0-96 42.98-96 96s42.98 96 96 96 96-42.98 96-96-42.98-96-96-96zM128 416l544 544h-80c-26.4 0-63.274-15.274-81.942-33.942l-476.116-476.116c-18.668-18.668-18.668-49.214 0-67.882l412.118-412.118c18.668-18.668 49.214-18.668 67.882 0l30.058 30.058-416 416z" />
<glyph unicode="&#xe914;" glyph-name="th-large-outline" d="M384 853.334h-213.333c-47.061 0-85.333-38.229-85.333-85.333v-213.333c0-47.104 38.272-85.333 85.333-85.333h213.333c47.061 0 85.333 38.229 85.333 85.333v213.333c0 47.104-38.272 85.333-85.333 85.333zM384 554.667h-213.333v213.333h213.333v-213.333zM853.333 853.334h-213.333c-47.104 0-85.333-38.229-85.333-85.333v-213.333c0-47.104 38.229-85.333 85.333-85.333h213.333c47.104 0 85.333 38.229 85.333 85.333v213.333c0 47.104-38.229 85.333-85.333 85.333zM853.333 554.667h-213.333v213.333h213.333v-213.333zM384 384h-213.333c-47.061 0-85.333-38.229-85.333-85.333v-213.333c0-47.104 38.272-85.333 85.333-85.333h213.333c47.061 0 85.333 38.229 85.333 85.333v213.333c0 47.104-38.272 85.333-85.333 85.333zM384 85.334h-213.333v213.333h213.333v-213.333zM853.333 384h-213.333c-47.104 0-85.333-38.229-85.333-85.333v-213.333c0-47.104 38.229-85.333 85.333-85.333h213.333c47.104 0 85.333 38.229 85.333 85.333v213.333c0 47.104-38.229 85.333-85.333 85.333zM853.333 85.334h-213.333v213.333h213.333v-213.333z" />
<glyph unicode="&#xe915;" glyph-name="message-typing" d="M768 682.667h-554.667c-70.4 0-128-57.6-128-128v-298.667c0-70.4 57.6-128 128-128h42.667v-128l128 128h384c70.4 0 128 57.6 128 128v298.667c0 70.4-57.6 128-128 128zM810.667 256c0-23.125-19.541-42.667-42.667-42.667h-554.667c-23.125 0-42.667 19.541-42.667 42.667v298.667c0 23.125 19.541 42.667 42.667 42.667h554.667c23.125 0 42.667-19.541 42.667-42.667v-298.667zM298.667 320c-47.104 0-85.333 38.229-85.333 85.333s38.229 85.333 85.333 85.333 85.333-38.229 85.333-85.333-38.229-85.333-85.333-85.333zM298.667 448c-23.552 0-42.667-19.115-42.667-42.667s19.115-42.667 42.667-42.667 42.667 19.115 42.667 42.667-19.115 42.667-42.667 42.667zM490.667 320c-47.104 0-85.333 38.229-85.333 85.333s38.229 85.333 85.333 85.333 85.333-38.229 85.333-85.333-38.229-85.333-85.333-85.333zM490.667 448c-23.552 0-42.667-19.115-42.667-42.667s19.115-42.667 42.667-42.667 42.667 19.115 42.667 42.667-19.115 42.667-42.667 42.667zM682.667 320c-47.104 0-85.333 38.229-85.333 85.333s38.229 85.333 85.333 85.333 85.333-38.229 85.333-85.333-38.229-85.333-85.333-85.333zM682.667 448c-23.552 0-42.667-19.115-42.667-42.667s19.115-42.667 42.667-42.667 42.667 19.115 42.667 42.667-19.115 42.667-42.667 42.667z" />
<glyph unicode="&#xe916;" glyph-name="clicks" d="M49 958.2c-17.8-4.4-31.8-15.4-41.2-32.6l-6.8-12.6-0.6-72.4-0.6-72.6h64.2v128h128v64l-68.4-0.2c-37.8-0.2-71.2-0.8-74.6-1.6zM256 928v-32h128v64h-128v-32zM448 928v-32h128v64h-128v-32zM640 928v-32h128v-128h64.2l-0.6 71.6-0.6 71.4-5.2 11.2c-6.6 13.8-17.6 24.8-31.8 31.6l-11 5.2-143 1.2v-32.2zM0 640v-64h64v128h-64v-64zM768 640v-64h64v128h-64v-64zM0 448v-64h64v128h-64v-64zM768 464v-48l64-32v128h-64v-48zM529 445.2c-9.8-4.2-17-14.2-17-23.4 0-9.6-7.4 9 86.8-218.8 60-144.6 81-193.4 85.4-198s7.6-6 13.8-6c13.8 0 17.6 5.8 39.4 60.6l19.6 49 171-173.4 42.4 41.8c23.4 23 45.2 44.2 48.6 47.4l6 5.6-171.8 171.8 9 3.8c4.8 2 26.2 10.8 47.6 19.6 43.8 17.8 54.2 24.8 54.2 36.8 0 13.6 1 13.2-214.4 101.4-110.8 45.2-204.2 82.8-208 83.4-3.6 0.6-9.2 0-12.6-1.6zM0.4 247.6l0.6-72.6 7.2-13c8.2-15 21-25.8 36.2-30.8 8.4-2.6 21-3.2 78.8-3.2h68.8v64h-128v128h-64.2l0.6-72.4zM256 160v-32h128v64h-128v-32zM448 160v-32h128l-32 64h-96v-32z" />
<glyph unicode="&#xe917;" glyph-name="bin" d="M128 640v-640c0-35.2 28.8-64 64-64h576c35.2 0 64 28.8 64 64v640h-704zM320 64h-64v448h64v-448zM448 64h-64v448h64v-448zM576 64h-64v448h64v-448zM704 64h-64v448h64v-448zM848 832h-208v80c0 26.4-21.6 48-48 48h-224c-26.4 0-48-21.6-48-48v-80h-208c-26.4 0-48-21.6-48-48v-80h832v80c0 26.4-21.6 48-48 48zM576 832h-192v63.198h192v-63.198z" />
<glyph unicode="&#xe918;" glyph-name="social-facebook-circular" d="M783.104 698.71c-74.667 74.283-165.888 111.957-271.104 111.957-106.197 0-197.675-37.717-271.915-112-74.368-74.283-112.085-165.845-112.085-272 0-105.173 37.675-196.395 111.957-271.104 74.283-74.923 165.803-112.896 272.043-112.896 105.259 0 196.48 37.973 271.189 112.768 74.88 74.795 112.811 166.059 112.811 271.232 0 106.155-37.973 197.717-112.896 272.043zM722.859 215.766c-48.512-48.597-103.936-76.288-168.192-84.693v210.261h85.333v85.333h-85.333v59.733c0 14.123 11.477 25.6 25.643 25.6h59.691v85.333h-59.605c-31.659 0-58.069-11.648-79.232-35.072-21.163-23.339-31.829-51.84-31.829-85.675v-49.92h-85.333v-85.333h85.333v-210.347c-64.939 8.32-120.576 36.053-168.832 84.651-58.667 59.051-87.168 128.085-87.168 211.029 0 83.883 28.459 153.088 87.125 211.627 58.453 58.581 127.659 87.040 211.541 87.040 82.987 0 151.979-28.501 210.987-87.168 59.008-58.539 87.68-127.744 87.68-211.499 0-82.816-28.715-151.851-87.808-210.901z" />
<glyph unicode="&#xe919;" glyph-name="files" d="M543.488 446.496h-256v-28.992h256v28.992zM543.488 350.496h-256v-31.008h256v31.008zM384.512 831.488v-96.512h-97.024v-96.512h-94.496v-606.016h447.008v96.992h94.496v94.016h96.512v608h-446.496zM608.992 63.488h-384.992v546.016h384.992v-546.016zM703.488 158.496h-63.488v480h-321.504v65.504h384.992v-545.504zM800 254.496h-65.504v480.512h-319.008v65.504h384.512v-546.016zM543.488 159.008h-256v-31.008h256v31.008zM543.488 255.488h-256v-31.008h256v31.008zM543.968 543.488h-256v-32h256v32z" />
<glyph unicode="&#xe91a;" glyph-name="line" d="M1002.668 362.666h-597.334c-11.792 0-21.334-9.542-21.334-21.334v-42.666c0-11.792 9.542-21.334 21.334-21.334h597.334c11.792 0 21.334 9.542 21.334 21.334v42.666c-0.002 11.792-9.544 21.334-21.334 21.334zM1002.668 618.666h-597.334c-11.792 0-21.334-9.542-21.334-21.334v-42.666c0-11.792 9.542-21.334 21.334-21.334h597.334c11.792 0 21.334 9.542 21.334 21.334v42.666c-0.002 11.792-9.544 21.334-21.334 21.334zM1002.668 874.666h-597.334c-11.792 0-21.334-9.542-21.334-21.334v-42.666c0-11.792 9.542-21.334 21.334-21.334h597.334c11.792 0 21.334 9.542 21.334 21.334v42.668c-0.002 11.79-9.544 21.332-21.334 21.332zM1002.668 106.666h-597.334c-11.792 0-21.334-9.542-21.334-21.334v-42.666c0-11.792 9.542-21.334 21.334-21.334h597.334c11.792 0 21.334 9.542 21.334 21.334v42.666c-0.002 11.792-9.544 21.334-21.334 21.334zM333.604 266.848l-33.294 28.114c-9.192 7.76-22.934 6.602-30.698-2.592l-56.278-66.654v444.398l56.282-66.674c7.76-9.192 21.502-10.354 30.698-2.594l33.29 28.098c9.192 7.76 10.354 21.506 2.592 30.698l-132.172 156.534c-8.252 9.808-20.42 15.464-33.268 15.464s-25.018-5.656-33.27-15.464l-132.342-156.684c-7.766-9.192-6.606-22.938 2.586-30.698l33.294-28.114c9.192-7.764 22.934-6.602 30.698 2.592l56.278 66.652v-444.396l-56.28 66.674c-7.76 9.192-21.502 10.354-30.698 2.594l-33.29-28.098c-9.192-7.76-10.354-21.506-2.592-30.7l132.172-156.532c8.252-9.808 20.42-15.466 33.268-15.466s25.018 5.658 33.27 15.466l132.338 156.684c7.768 9.19 6.61 22.936-2.584 30.698z" />
<glyph unicode="&#xe91b;" glyph-name="layout" d="M96 832v-800h800v800h-800zM480 64h-352v736h352v-736zM864 64h-352v736h352v-736z" />
<glyph unicode="&#xe91c;" glyph-name="img-hotspots" d="M454 881.8c-118.2-10.4-230.2-52.2-311.6-116.4-74.4-58.6-122.6-133.6-137.6-214.4-5.6-29.4-5-80.6 1-109 19.6-93 83-178.6 174.6-236l13.4-8.4-45.8-91.8c-25.4-50.4-46-92.2-46-92.6 0-0.6 55.4 26.6 122.8 60l123 61.2 24.2-5.2c92.4-20 195-19.2 288 1.8 79.8 18 154.8 51.8 215.6 97.4 26.4 19.8 64.4 58 84.2 84.6 18 24.4 40.8 67.8 49.2 93.8 10.8 33.6 13.8 53.6 13.8 92.2 0.2 27.2-0.8 40.2-3.4 53-10.8 51.4-30 94.2-61.2 136-14.4 19.4-50.8 57-71.2 73.4-84.2 67.6-196.4 110.2-318 120.6-27.6 2.2-87.4 2.2-115-0.2zM554 780c124.2-9.4 232-54.4 300-125.2 46-47.8 68.2-98.6 68-155.6-0.2-58.6-23.6-110.6-71-158.2-60.8-61.4-146.6-101-255-118-32-5.2-113.4-6.4-148.8-2.2-174 20.2-306.8 109.8-339.4 229-6 21.6-7.4 61.4-3 84.8 11.4 60.8 51.4 117.6 113.2 161.8 22.8 16.2 79 44.6 108 54.6 71.8 24.6 151.4 34.8 228 29zM285 545.8c-25.8-12.8-36.6-43.8-23.8-69.4 22.8-45.6 91-32.4 96.2 18.6 3.2 30-20.2 55.2-51.2 55-9-0.2-15.8-1.4-21.2-4.2zM491 546.2c-4.4-2-11.8-7.8-16.4-12.8-21-22.8-17.6-57.2 7.8-75.4 21.2-15.4 50.4-12.2 67.6 7.2 8.8 10.2 12.6 19.6 12.6 32.8 0.2 14.8-3.6 25-13.4 35.6-10.8 12-20.8 16.4-37.2 16.4-8.4 0-15.8-1.4-21-3.8zM694.4 544.8c-31-15.4-37.6-55-13.6-80.4 31.2-33.4 87.2-11.2 87.2 34.4 0 29.4-21.6 51-51.2 51.2-9 0-14.6-1.2-22.4-5.2z" />
<glyph unicode="&#xe91d;" glyph-name="music_video" d="M342 298.667q0 52 38 90t90 38q14 0 42-8v264h214v-86h-128v-300q0-52-38-89t-90-37-90 38-38 90zM896 128.667v596h-768v-596h768zM896 810.667q34 0 60-26t26-60v-596q0-34-26-60t-60-26h-768q-34 0-60 26t-26 60v596q0 34 26 60t60 26h768z" />
<glyph unicode="&#xe91e;" glyph-name="contacts" d="M726 212.667v64q0 48-73 78t-141 30-141-30-73-78v-64h428zM512 650.667q-40 0-68-28t-28-68 28-68 68-28 68 28 28 68-28 68-68 28zM854 768.667q34 0 59-26t25-60v-512q0-34-25-60t-59-26h-684q-34 0-59 26t-25 60v512q0 34 25 60t59 26h684zM170-85.333v86h684v-86h-684zM854 938.667v-86h-684v86h684z" />
<glyph unicode="&#xe91f;" glyph-name="view_day" d="M86 810.667h810v-128h-810v128zM854 596.667q18 0 30-12t12-30v-256q0-18-12-30t-30-12h-726q-18 0-30 12t-12 30v256q0 18 12 30t30 12h726zM86 42.667v128h810v-128h-810z" />
<glyph unicode="&#xe920;" glyph-name="picture" d="M626.272 612.576l-100.608-151.424-73.12 73.696-73.152-118.304-54.848 54.304-59.392-118.848h466.304l-105.184 260.576zM128 800v-736h736v736h-736zM800 288h-608v448h608v-448zM335.712 541.728c26.528 0 48 21.472 48 48s-21.472 48-48 48c-26.496 0-48-21.472-48-48s21.504-48 48-48z" />
<glyph unicode="&#xe921;" glyph-name="sitepad-logo" horiz-adv-x="1029" d="M464.162 957.156c-96.711-9.051-199.37-50.683-272.808-110.933-92.574-75.507-155.927-179.717-179.717-294.271-43.184-207.127 45.253-417.616 224.194-534.238 89.471-58.182 208.162-88.436 313.147-79.386 122.053 10.343 227.814 56.889 313.665 138.085 93.091 87.919 147.911 203.248 159.030 334.61 9.309 106.796-21.463 225.228-82.23 317.543-103.952 157.737-287.806 246.174-475.281 228.59zM565.010 839.499c7.24-0.517 18.101-1.552 24.566-2.586 6.465-0.776 13.964-1.552 16.808-1.81s6.723-1.552 8.533-2.586c1.81-1.293 5.43-1.552 8.016-0.517 2.844 0.776 5.689 0.517 6.465-1.034 0.776-1.293 3.879-1.81 6.723-1.034 3.103 0.776 5.172 0 5.172-1.81s2.069-2.327 5.172-1.293c3.103 1.034 5.172 0.517 5.172-1.293s2.069-2.327 5.172-1.293c3.103 1.034 5.172 0.517 5.172-1.293s1.81-2.586 3.879-1.81c2.069 1.034 4.396 0.517 5.172-0.776s3.103-1.81 5.172-0.776c2.069 0.776 3.879 0 3.879-1.552s1.81-2.069 3.879-1.293c2.069 1.034 3.879 0.259 3.879-1.293s0.776-2.586 2.069-2.586c1.034 0.259 2.327 0.259 3.103-0.259 0.776-0.259 4.137-1.034 7.758-1.552 3.62-0.776 6.723-2.327 7.24-3.62s2.586-1.552 4.655-0.776c2.069 0.776 3.62 0 3.62-1.552s1.81-2.069 3.879-1.293c2.069 1.034 3.879 0.259 3.879-1.552 0-1.552 1.293-2.069 2.586-1.293 1.552 0.776 2.586 0.259 2.586-1.293 0-1.81 1.81-2.586 3.879-1.552 2.069 0.776 3.879 0.259 3.879-1.293s1.293-1.81 2.586-1.034c1.552 0.776 2.586 0.259 2.586-1.293s1.293-2.069 2.586-1.293c1.552 0.776 2.586 0.517 2.586-1.034s1.81-2.069 3.879-1.293c2.069 1.034 3.879 0.259 3.879-1.552 0-1.552 1.293-2.069 2.586-1.293 1.552 0.776 2.586 0.259 2.586-1.293s1.293-2.069 2.586-1.293c1.552 0.776 2.586 0.259 2.586-1.293s1.293-2.069 2.586-1.293c1.552 0.776 2.586 0.259 2.586-1.293s1.293-2.069 2.586-1.293c1.552 0.776 2.586 0.259 2.586-1.293s1.293-2.069 2.586-1.293c1.552 0.776 2.586 0.517 2.586-1.034s1.81-2.069 3.879-1.293c2.069 1.034 4.396-0.259 5.43-2.586 0.776-2.327 2.586-3.362 3.879-2.586s2.327 0 2.327-1.552c0-1.552 1.293-2.069 2.586-1.293 1.552 0.776 2.586 0.259 2.586-1.293s1.293-2.069 2.586-1.293c1.552 0.776 2.586 0.259 2.586-1.552s0.776-2.327 1.552-1.552c2.586 2.586 11.378-3.103 11.378-7.24 0-2.069-2.327-6.206-4.913-8.792-2.844-2.844-4.396-5.689-3.62-6.465 1.034-0.776 0.259-1.552-1.552-1.552s-2.586-1.034-1.552-2.586c0.776-1.293-0.776-4.655-3.62-7.499s-4.396-5.689-3.62-6.465c1.034-0.776 0.259-1.552-1.293-1.552-1.81 0-2.844-0.776-2.844-1.81 0.776-5.43-0.517-8.533-3.362-6.982-1.81 1.293-2.069 0.776-0.776-1.552 1.293-2.069 0.259-4.655-2.586-6.982-2.844-1.81-4.137-3.362-3.103-3.362s0.259-3.362-2.069-7.758c-2.327-4.137-5.172-7.758-6.723-7.758s-1.81-1.034-1.034-2.586c0.776-1.293 0.776-2.586-0.517-2.844-1.034 0-4.137-0.517-6.465-1.034-2.586-0.517-4.655 0.259-4.655 1.552 0 1.552-1.034 1.81-2.586 1.034-1.293-0.776-2.586-0.259-2.586 1.552s-0.776 2.586-1.552 1.552c-1.034-0.776-3.362 0.259-5.43 2.327s-4.913 3.103-6.206 2.327c-1.293-1.034-2.327-0.259-2.327 1.293s-1.034 2.069-2.586 1.293c-1.293-0.776-2.586-0.259-2.586 1.293s-1.034 2.069-2.586 1.293c-1.293-0.776-2.586-0.259-2.586 1.293s-1.034 2.069-2.586 1.293c-1.293-0.776-2.586-0.259-2.586 1.293s-1.034 2.069-2.586 1.293c-1.293-0.776-2.586-0.517-2.586 1.034s-1.81 2.069-3.879 1.293c-2.069-1.034-3.879-0.259-3.879 1.552 0 1.552-1.034 2.069-2.586 1.293-1.293-0.776-2.586-0.517-2.586 1.034s-1.81 2.069-3.879 1.293c-2.069-1.034-3.879-0.259-3.879 1.293s-1.81 2.069-3.879 1.293c-2.069-1.034-3.879-0.259-3.879 1.293s-1.81 2.069-3.879 1.293c-2.069-1.034-3.879-0.259-3.879 1.552 0 1.552-1.034 2.069-2.586 1.293-1.293-0.776-2.586-0.259-2.586 1.293 0 1.81-1.81 2.586-3.879 1.552-2.069-0.776-3.879-0.259-3.879 1.293s-2.327 2.069-5.172 1.034c-2.844-1.034-5.172-0.517-5.172 1.034s-1.81 2.069-3.879 1.293c-2.069-1.034-3.879-0.259-3.879 1.552 0 2.069-2.327 2.844-6.465 2.069-3.62-0.776-7.24-0.517-8.016 0.776-0.517 1.034-2.844 1.552-4.913 0.517-2.069-0.776-3.879 0-3.879 1.81s-2.069 2.586-5.172 1.81c-2.844-0.776-5.947-0.259-6.723 1.293-0.776 1.293-3.879 2.069-6.465 1.293-2.844-0.776-4.913-0.259-4.913 1.034s-2.844 1.81-6.465 0.776c-4.396-1.034-6.465-0.517-6.465 1.552s-2.586 2.844-7.499 1.81c-4.137-0.776-8.275-0.776-9.309 0.259s-5.43 2.069-9.826 2.327c-14.998 1.293-80.42 0.776-92.315-0.517-6.465-0.517-14.739-1.293-18.618-1.293-4.137 0-7.24-1.034-7.24-2.586s-2.586-2.069-6.465-1.034c-3.879 1.034-6.465 0.517-6.465-1.293 0-1.552-1.552-2.069-3.62-1.293s-4.396 0.259-5.172-1.293c-1.034-1.552-3.362-2.069-5.43-1.034-2.069 0.776-3.879 0-3.879-1.81s-1.81-2.586-3.879-1.552c-2.069 0.776-3.879 0.259-3.879-0.776 0-1.293-2.327-1.81-5.172-1.034-3.103 0.776-5.172 0-5.172-1.552 0-1.81-1.034-2.327-2.586-1.552-1.293 0.776-2.586 0.259-2.586-1.293 0-1.81-1.81-2.586-3.879-1.552-2.069 0.776-3.879 0-3.879-1.552s-0.776-2.327-1.552-1.293c-1.034 0.776-3.362-0.259-5.43-2.327-2.327-2.069-5.689-3.362-7.758-2.586-2.327 1.034-2.844 0.517-1.81-1.552 1.293-2.069 0.517-2.327-2.586-1.293-2.844 1.293-3.879 0.776-2.586-1.293s0.517-2.327-2.586-1.293c-2.586 1.034-3.879 0.776-2.844-0.776 1.552-2.327-2.069-3.62-6.982-2.844-1.293 0-2.069-0.776-2.069-1.81 0-1.293-5.43-5.947-12.154-10.861-7.499-4.913-10.861-6.465-8.792-3.62 2.069 2.586-0.517 0.259-5.689-5.43s-14.481-14.998-20.428-20.428c-6.206-5.689-8.792-8.533-6.206-6.465 3.103 2.069 1.293-1.552-3.879-8.275-4.913-6.723-9.568-11.636-10.602-10.861-1.293 0.517-2.069-1.293-2.069-4.137 0-3.103-2.069-7.499-4.655-10.085s-4.137-6.206-3.62-8.275c0.776-2.069 0-2.586-2.069-1.293-2.586 1.552-3.103 1.034-1.81-2.069 0.776-2.327-0.259-5.947-2.327-8.275-2.069-2.069-3.362-4.913-2.327-6.206 0.776-1.293 0.259-3.103-1.293-4.137s-2.069-2.844-1.034-4.137c0.776-1.293 0-4.137-1.552-6.206s-2.327-4.913-1.293-6.465c1.034-1.552 0.517-4.137-0.776-5.947-3.362-3.879-3.362-63.354-0.259-65.422 1.552-0.776 1.81-3.62 1.034-6.465-1.034-2.844-0.517-4.913 1.293-4.913s2.327-2.069 1.293-5.172c-1.034-3.103-0.517-5.172 1.293-5.172s2.586-1.81 1.552-3.879c-0.776-2.069-0.259-3.879 1.293-3.879s2.327-1.81 1.293-3.879c-0.776-2.069-0.259-3.879 1.034-3.879s1.552-1.81 0.776-4.396c-1.293-3.103-0.776-3.62 1.81-2.069s3.103 1.034 1.81-2.069c-0.776-2.586-0.517-4.396 1.034-4.396s2.069-1.034 1.293-2.327c-0.776-1.293 0.259-3.103 2.586-3.879 2.327-1.034 3.62-3.362 2.586-5.689-0.776-2.069-0.517-3.103 1.034-2.327s2.586 0.776 2.844-0.517c0.776-8.533 2.844-12.671 9.309-18.101 3.879-3.62 5.43-5.43 3.362-4.396s1.034-2.586 6.982-7.758c5.947-5.172 15.257-14.481 20.428-20.428s8.533-9.309 7.499-7.24c-1.293 2.327 0.259 1.81 4.913-1.034 3.62-2.586 6.723-5.43 6.723-6.723s0.776-2.069 2.069-2.069c4.913 0.776 8.533-0.517 6.982-2.844-0.776-1.552 0.259-1.81 2.327-1.034 2.327 1.034 4.655-0.259 5.689-2.586 0.776-2.327 2.586-3.362 3.879-2.586s2.327 0.259 2.327-1.293c0-1.552 1.81-1.81 4.396-1.034 2.844 1.034 3.62 0.776 2.327-1.293s-0.517-2.586 2.069-1.552c2.327 0.776 4.137 0.259 4.137-1.552 0-1.552 1.293-2.069 2.586-1.293 1.552 0.776 2.586 0.259 2.586-1.293 0-1.81 1.81-2.586 3.879-1.552 2.069 0.776 3.879 0.259 3.879-1.293s2.327-2.069 5.172-1.034c2.844 0.776 5.172 0.517 5.172-1.034 0-1.293 2.069-2.586 4.655-2.586 7.499-0.259 14.739-1.81 18.101-3.879 1.81-1.034 5.43-1.034 8.533-0.259 2.844 1.034 6.723 0.517 8.533-1.034 3.362-2.844 80.162-2.327 97.228 0.776 4.913 1.034 11.636 1.552 14.998 1.552 3.103 0 5.689 1.293 5.689 2.586s1.81 1.81 3.879 1.034c2.069-1.034 3.879-0.259 3.879 1.552s1.81 2.586 3.879 1.552c2.069-0.776 3.879-0.259 3.879 1.293s1.034 2.069 2.327 1.293c1.293-1.034 2.844-0.259 3.362 1.034 0.517 1.552 2.844 3.103 5.172 3.362 6.465 1.034 12.412 6.982 12.412 12.412 0 2.844 1.034 4.913 2.327 4.913 3.362 0 2.327 10.085-1.552 17.067-1.81 3.103-2.586 6.206-1.81 6.723 0.517 0.776-1.034 2.844-3.362 4.913-4.137 3.103-4.396 3.103-2.069-0.259 1.552-2.586 1.034-2.327-1.552 0.517-2.327 2.327-4.913 3.62-5.947 2.844-0.776-1.034-1.552-0.517-1.552 1.034s-2.586 2.844-5.689 3.103c-3.362 0-8.275 0.259-11.119 0.517s-20.17-0.517-38.788-1.552c-50.683-3.103-91.798-2.069-99.297 2.327-1.552 1.034-4.655 1.293-6.723 0.517s-4.396-0.259-5.172 1.034c-0.776 1.293-3.103 1.81-5.172 0.776-2.069-0.776-3.879 0-3.879 1.552s-1.81 2.069-3.879 1.293c-2.069-1.034-3.879-0.259-3.879 1.552 0 1.552-1.034 2.069-2.586 1.293-1.293-0.776-2.586-0.517-2.586 1.034s-1.81 1.81-4.396 1.034c-3.103-1.293-3.62-0.776-2.069 1.81s1.034 3.103-2.327 1.81c-2.586-1.034-6.206 0.259-9.051 3.103s-5.43 4.396-6.206 3.879c-0.517-0.517-4.913 2.844-9.826 7.24-5.172 4.655-7.24 7.499-4.913 5.947 2.327-1.293 1.552 0-1.81 3.103s-5.947 6.982-5.947 8.533c0 1.552-1.034 2.327-2.069 1.552-2.844-1.552-13.964 17.842-11.636 20.17 0.776 0.776 0.259 1.552-1.552 1.552-2.069 0-2.844 1.81-1.81 3.879 0.776 2.069 0.259 3.879-1.034 3.879-1.552 0-2.327 0.776-2.327 2.069 0.259 1.034 0 2.586-0.259 3.879-0.259 1.034-1.034 3.103-1.293 4.396-0.259 1.552-1.034 2.844-1.293 3.362-3.103 3.362-4.396 41.632-1.552 57.406 0.776 5.689 1.81 11.895 2.069 13.705 0.259 1.552 1.552 3.103 2.844 3.103s1.81 1.81 1.034 3.879c-1.034 2.069-0.517 4.396 1.034 5.172 1.293 1.034 1.81 2.844 1.034 4.137-1.034 1.293-0.259 2.327 1.293 2.327s2.069 1.293 1.293 2.586c-0.776 1.552-0.259 2.586 1.293 2.586s2.327 1.034 1.552 2.327c-0.776 1.034 0.517 4.396 2.586 6.982 2.327 2.586 3.103 3.362 2.069 1.293-1.293-2.327-0.776-3.103 1.034-1.81 1.81 1.034 3.103 3.879 3.103 6.206 0 5.43 17.842 23.79 23.531 23.79 2.327 0 6.206 3.103 8.792 6.723 2.586 3.879 5.689 5.947 8.016 5.172s3.103-0.259 2.327 1.034c-1.552 2.327 2.069 3.62 7.24 2.844 1.034 0 1.81 1.034 1.81 2.586 0 1.293 1.293 1.81 2.586 1.034 1.552-0.776 2.586-0.259 2.586 1.293 0 1.81 1.81 2.586 3.879 1.552 2.069-0.776 3.879-0.259 3.879 1.293s1.293 1.81 2.586 1.034c1.552-0.776 2.586-0.259 2.586 1.293 0 1.81 1.81 2.586 3.879 1.552 2.069-0.776 3.879-0.259 3.879 1.293s1.81 2.327 3.879 1.293c2.069-0.776 3.879-0.259 3.879 1.034s1.552 1.81 3.62 1.034c2.069-0.776 4.396-0.259 5.172 1.293 1.034 1.552 3.362 2.069 5.43 1.034 2.069-0.776 3.879-0.259 3.879 0.776 0 1.293 2.586 2.586 5.947 2.844 3.103 0.259 10.343 1.034 16.032 1.81 38.788 5.43 111.709 5.947 119.725 0.776 1.81-1.293 5.43-1.552 8.016-0.517 2.844 0.776 5.689 0.259 6.723-1.293s3.879-2.069 6.723-1.293c2.844 1.034 4.913 0.517 4.913-1.293s2.069-2.327 5.172-1.293c3.103 1.034 5.172 0.517 5.172-1.293s2.069-2.586 5.172-1.81c2.844 0.776 5.172 0.259 5.172-1.293 0-1.293 2.327-1.552 5.172-0.776 3.103 1.034 5.172 0.517 5.172-1.293s1.81-2.586 3.879-1.552c2.069 0.776 3.879 0.259 3.879-1.034s1.81-1.81 3.879-1.034c2.069 1.034 3.879 0.259 3.879-1.552s1.81-2.586 3.879-1.552c2.069 0.776 3.879 0.259 3.879-1.034s1.81-1.81 3.879-1.034c2.069 1.034 3.879 0.259 3.879-1.293s1.81-2.069 4.396-1.034c2.844 1.034 3.62 0.776 2.327-1.293s-0.517-2.586 2.069-1.552c2.327 0.776 4.137 0.259 4.137-1.552 0-1.552 1.293-2.069 2.586-1.293 1.552 0.776 2.586 0.259 2.586-1.293s1.034-2.069 2.586-1.293c2.844 1.81 23.273-8.016 23.273-11.378 0-1.034 1.552-2.069 3.62-2.069 5.172 0 29.996-16.291 29.996-19.653 0-1.552 0.776-1.81 1.552-1.034 1.034 1.034 4.137-0.776 6.723-4.137 2.844-3.103 5.947-5.689 6.982-5.689 0.776 0 6.982-5.172 13.188-11.636 6.465-6.465 14.222-13.446 17.584-15.515 3.103-2.069 5.689-4.913 5.689-6.723 0-1.552 2.586-4.913 5.689-7.758 4.913-3.879 5.172-4.137 2.327-0.259-1.81 2.327-2.844 4.396-2.069 4.396 0.517 0 4.396-4.396 8.533-9.568 3.879-5.172 5.43-8.533 3.362-7.499-2.069 1.293-0.517-0.517 3.362-3.879 9.826-8.792 20.945-27.41 18.618-31.030-1.034-2.069-0.776-2.327 1.034-1.293 2.844 1.81 3.62 0.776 4.137-6.723 0.259-1.81 1.81-4.913 3.62-6.723 1.81-2.069 2.586-4.655 1.81-5.947-1.034-1.293-0.259-2.327 1.293-2.327 1.81 0 2.586-1.81 1.552-3.879-0.776-2.069-0.259-3.879 1.293-3.879s2.069-1.81 1.293-4.137c-1.034-2.586-0.517-3.362 1.552-2.069 1.81 1.293 2.327 0 1.552-3.62-1.034-3.103-0.517-5.689 1.034-5.689s2.069-1.81 1.293-3.879c-1.034-2.069-0.517-4.396 1.034-5.43 1.552-0.776 2.069-3.103 1.293-5.172s-0.259-3.62 1.034-3.62c1.552 0 2.586-3.879 2.586-8.275 0-16.032 1.293-27.41 3.362-29.479 2.844-2.844 2.327-47.063-0.776-48.873-1.293-0.776-2.327-4.655-2.327-8.533-0.259-8.275-1.81-21.98-2.844-23.79s-2.844-13.446-2.844-18.618c0-2.586-1.034-4.655-2.327-4.655-1.034 0-1.552-2.327-0.776-5.172 0.776-3.103 0-5.172-1.552-5.172-1.81 0-2.327-1.034-1.552-2.586 0.776-1.293 0.517-2.586-1.034-2.586s-2.069-1.81-1.293-3.879c1.034-2.069 0.259-3.879-1.293-3.879s-2.069-1.552-1.293-3.62c0.776-1.81-0.259-5.172-2.069-6.982-1.81-2.069-3.362-5.172-3.62-6.723-0.517-7.758-1.293-8.792-3.62-7.24-1.293 0.776-1.81 0-1.034-2.327 0.776-2.069-0.776-5.947-3.62-8.792s-4.655-5.947-3.62-6.723c0.776-0.776 0.259-1.552-1.293-1.552-1.293 0-2.586-1.552-2.586-3.362 0-4.396-8.533-17.325-11.636-17.325-1.293 0-1.81-1.034-1.034-2.327 0.776-1.034-2.069-6.206-6.206-10.861-4.137-4.913-10.602-12.671-14.481-17.325-3.62-4.655-7.499-7.758-8.275-6.982-1.81 1.81-11.119-6.723-9.568-9.051 0.517-1.034-2.069-4.655-5.947-8.016l-6.982-6.206 5.172 6.723c2.844 3.62 0 1.034-6.465-5.43s-13.964-13.705-16.549-15.774c-4.655-3.103-4.913-3.103-3.103 0.259 1.034 2.069-0.517 1.034-3.362-2.586s-5.43-5.43-5.43-3.879c0 1.293-1.81-0.259-4.137-3.362-2.327-3.62-5.689-5.43-8.016-4.655-2.069 0.776-2.844 0.259-2.069-1.034 1.552-2.327-2.069-3.62-5.172-1.81-0.517 0.259-2.844-1.81-4.913-4.655s-4.396-4.396-5.43-3.362c-1.034 0.776-4.137-0.776-6.982-3.62s-6.723-4.396-8.792-3.62c-2.069 0.776-3.62 0.259-3.62-1.293s-1.034-1.81-2.586-1.034c-1.293 0.776-2.586 0.259-2.586-1.293s-1.034-2.069-2.586-1.293c-1.293 0.776-2.586 0.259-2.586-1.293 0-1.81-1.81-2.586-3.879-1.552-2.069 0.776-3.879 0.259-3.879-1.034s-1.81-1.552-4.396-0.776c-3.103 1.293-3.62 0.776-2.069-1.81s1.034-3.103-2.069-1.81c-2.586 1.034-4.396 0.517-4.396-1.034s-1.81-2.327-3.879-1.293c-2.069 0.776-3.879 0.259-3.879-1.293s-1.81-2.327-3.879-1.552c-2.069 1.034-4.396 0.517-5.172-0.776s-3.103-1.81-5.172-0.776c-2.069 0.776-3.879 0-3.879-1.81s-1.81-2.586-3.879-1.552c-2.069 0.776-3.879 0.259-3.879-1.293s-2.327-2.069-5.172-1.034c-3.103 1.034-5.172 0.517-5.172-1.293s-2.069-2.327-5.172-1.293c-3.103 1.034-5.172 0.517-5.172-1.293s-2.069-2.327-4.913-1.293c-2.844 0.776-5.689 0.259-6.723-1.293s-3.879-2.069-6.465-1.293c-2.586 0.776-5.43 0.259-6.465-1.293-1.034-1.81-4.655-2.327-8.275-1.552-3.362 1.034-7.24 1.034-8.792 0-6.206-3.62-87.143-5.172-122.57-2.327-9.826 0.776-22.238 1.81-27.152 2.069s-10.343 1.293-11.895 2.327c-1.81 1.293-5.947 2.069-9.051 2.069-11.378 0-16.549 0.776-19.394 3.103-1.552 1.034-4.913 1.552-7.24 0.517-2.327-0.776-4.137-0.259-4.137 1.552s-2.069 2.327-5.172 1.293c-3.103-1.034-5.172-0.517-5.172 1.293s-2.069 2.327-5.172 1.293c-3.103-1.034-5.172-0.517-5.172 1.293s-1.81 2.586-3.879 1.552c-2.069-0.776-3.879-0.259-3.879 1.293s-2.327 2.069-5.172 1.034c-3.103-1.034-5.172-0.517-5.172 1.293 0 1.552-1.293 2.069-2.586 1.293s-2.586-0.259-2.586 1.293c0 1.81-1.81 2.586-3.879 1.552-2.069-0.776-3.879-0.259-3.879 1.293s-1.81 2.327-3.879 1.293c-2.069-0.776-3.879-0.259-3.879 1.034s-1.81 1.81-3.879 1.034c-2.069-1.034-3.879-0.259-3.879 1.552 0 1.552-1.034 2.069-2.586 1.293-1.293-0.776-2.586-0.259-2.586 1.293s-1.293 2.069-2.586 1.293c-1.552-0.776-5.689 0.776-9.309 3.62-3.879 2.844-7.758 4.655-9.051 3.879s-2.327 0-2.327 1.552c0 1.552-1.293 2.069-2.586 1.293s-2.586-0.259-2.586 1.293c0 1.552-1.293 2.069-2.586 1.293-1.552-0.776-2.586-0.259-2.586 1.293s-1.034 2.069-2.586 1.293c-1.552-0.776-2.586-0.259-2.586 1.293s-1.293 2.069-2.586 1.293c-1.552-0.776-2.586-0.259-2.586 1.293s-1.293 2.069-2.586 1.293c-1.552-0.776-2.586-0.259-2.586 1.293s-1.293 2.069-2.586 1.293c-1.293-0.776-2.586-0.259-2.586 1.293s-1.293 2.069-2.586 1.293c-1.552-0.776-2.586-0.259-2.586 1.552s-0.776 2.327-1.81 1.552c-0.776-1.034-3.103 0.259-5.172 2.844-2.069 2.327-2.844 2.844-2.069 1.034 1.552-2.844 0.776-3.103-3.62-0.776-2.844 1.81-5.43 4.137-5.43 5.43 0 1.552-2.327 2.586-5.43 2.586-2.844 0-4.396 1.293-3.62 2.586 0.776 1.552-0.776 2.586-3.879 2.586s-4.655 1.293-3.879 2.586c0.776 1.552-0.259 2.586-2.844 2.586-4.913 0-29.479 17.325-29.479 20.945 0 1.552-1.552 1.81-3.103 0.776-1.81-1.034-2.586-1.034-1.552 0.259 2.844 3.103-2.844 9.051-8.275 9.051-4.913 0-5.43 3.879-1.552 10.085 1.81 2.586 1.293 3.103-1.293 1.552-4.655-2.844 4.137 8.275 14.222 17.842 4.396 4.137 6.465 6.465 4.396 5.43-1.81-1.034-0.776 1.552 2.327 5.947 3.362 4.396 6.982 7.499 8.275 6.723s1.81-0.517 1.552 0.776c-1.034 2.844 7.758 15.257 10.085 14.222 1.034-0.259 2.069 1.293 2.327 3.62 0.517 2.327 2.069 5.689 3.879 7.24 2.327 2.069 2.586 2.069 1.034-0.776-1.293-2.327-1.034-3.103 0.776-1.81 1.81 1.034 3.103 3.62 3.103 5.689 0 5.172 11.378 4.655 15.774-0.776 3.103-3.879 3.103-4.137-0.259-2.069-2.327 1.293-3.103 1.293-1.81-0.259 1.293-1.293 3.103-2.327 3.879-2.586 5.43-0.776 10.602-4.655 9.051-6.982-0.776-1.552-0.259-1.81 1.293-0.776 1.81 1.034 5.947-0.776 9.309-4.137s7.499-6.206 9.051-6.723c5.172-1.034 15.774-8.792 15.774-11.119 0-1.293 0.776-2.069 2.069-2.069 4.913 0.776 8.533-0.517 6.982-2.844-1.034-1.552 0.259-1.81 2.844-0.776 3.103 1.034 3.879 0.776 2.586-1.293s-0.259-2.586 2.586-1.293c3.362 1.293 3.879 0.776 2.327-1.81-1.293-2.069-1.034-2.844 0.776-1.81 3.879 2.586 11.119-0.776 9.051-4.137-0.776-1.293-0.259-1.81 1.293-0.776 3.103 1.81 16.032-3.362 16.032-6.465 0-1.293 1.81-1.293 4.396-0.517 2.844 1.034 3.62 0.776 2.327-1.293s-0.517-2.586 2.069-1.552c2.327 0.776 4.137 0.259 4.137-1.552 0-1.552 1.293-2.069 2.586-1.293s2.586 0.259 2.586-1.293c0-1.81 1.81-2.586 3.879-1.552 2.069 0.776 3.879 0.259 3.879-1.034s1.81-1.81 3.879-1.034c2.069 1.034 3.879 0.259 3.879-1.293s1.81-2.069 3.879-1.293c2.069 1.034 3.879 0.259 3.879-1.293s1.81-2.069 3.879-1.293c2.069 1.034 3.879 0.259 3.879-1.552s1.81-2.586 3.879-1.81c2.069 1.034 4.396 0.517 5.172-0.776s3.103-1.81 4.913-1.034c2.069 0.776 4.396 0 5.43-1.293 0.776-1.552 2.844-2.327 4.137-1.293 1.293 0.776 3.879 0.259 5.689-1.034 2.844-2.327 5.689-2.844 16.808-3.362 2.327 0 6.206-0.776 8.275-1.81 7.499-2.844 22.756-3.879 72.404-3.879 58.182 0 66.715 0.517 68.525 3.62 0.776 1.034 3.103 1.552 5.172 0.517 2.327-0.776 5.689 0 7.758 1.81 2.069 1.552 4.913 2.327 6.465 1.293s4.137-0.517 5.947 0.776c1.81 1.293 4.913 2.586 6.982 2.586 5.947 0.259 11.378 1.81 14.998 4.137 1.81 1.034 4.137 1.293 4.913 0.517s3.103-0.259 5.172 1.293c1.81 1.552 3.362 2.069 3.362 1.034s1.81-0.517 3.879 1.293c2.069 1.81 3.879 2.327 3.879 1.293s1.81-0.517 3.879 1.293c2.069 1.81 3.879 2.327 3.879 1.293s1.552-0.517 3.362 1.034c2.069 1.552 4.396 2.069 5.172 1.034 1.034-0.776 1.81-0.259 1.81 1.552s1.293 2.327 2.586 1.552c1.552-0.776 2.586-0.517 2.586 0.776 0 2.069 22.756 13.964 26.634 13.705 1.034-0.259 4.137 2.069 6.982 4.913 3.103 3.103 6.723 4.655 8.533 3.62s2.327-1.034 1.293 0.259c-2.069 2.327 12.412 14.222 17.325 14.222 1.552 0 6.206 3.879 10.602 8.275l7.499 8.533-7.758-6.206c-5.43-4.396-4.655-3.362 2.069 3.362 5.172 5.172 9.568 10.861 9.568 12.154 0 1.552 1.293 1.81 2.586 1.034 1.552-0.776 3.362 0.517 4.137 3.103 3.103 9.309 6.982 16.032 8.792 14.998 1.034-0.776 2.586 2.327 3.62 6.723 0.776 4.396 2.586 7.24 4.137 6.206s1.81 0.259 0.776 2.844c-1.034 3.103-0.776 3.879 1.293 2.586s2.586-0.517 1.552 2.069c-0.776 2.327-0.259 4.137 1.552 4.137 1.552 0 2.069 1.293 1.293 2.586-0.776 1.552-0.517 2.586 1.034 2.586s2.069 1.81 1.293 3.879c-1.034 2.069-0.259 3.879 1.293 3.879s2.069 1.81 1.293 3.879c-1.034 2.069-0.259 3.879 1.552 3.879s2.586 1.81 1.81 3.879c-1.034 2.069-0.517 4.396 0.517 5.172 1.293 0.776 1.81 3.62 1.034 6.465s0 5.172 1.552 5.172c2.844 0 3.362 5.947 3.362 32.323-0.259 28.186-0.776 34.651-3.362 36.461-1.293 0.776-1.81 3.62-1.034 6.206s0.259 5.43-1.034 6.206c-1.552 1.034-2.069 3.362-1.034 5.43 0.776 2.069 0 3.879-1.552 3.879s-2.069 1.81-1.293 3.879c1.034 2.069 0.259 3.879-1.552 3.879-1.552 0-2.069 1.293-1.293 2.586 0.776 1.552 0.259 2.586-1.293 2.586-1.81 0-2.586 1.81-1.552 3.879 0.776 2.069 0.259 3.879-1.293 3.879s-1.81 1.293-1.034 2.586c0.776 1.552 0.259 2.586-1.293 2.586s-2.327 1.034-1.552 2.327c0.776 1.293 0 2.844-2.069 3.62-1.81 0.776-4.137 4.913-4.913 9.568-1.034 4.396-2.844 7.499-4.396 6.465-1.293-0.776-3.103 1.552-4.137 5.172-0.776 3.362-2.586 5.947-3.62 5.172s-3.362 2.069-5.172 6.206c-1.552 4.137-6.206 10.343-9.826 13.705l-6.982 5.947 5.172-6.206c3.103-3.879 0.259-2.327-6.982 3.62-11.636 9.309-18.101 16.549-7.758 8.792 3.879-3.362 4.137-3.103 1.034 0.776-2.069 2.327-4.913 3.879-6.982 3.103-1.81-0.776-4.913 0.776-6.723 3.62-2.069 2.844-4.655 5.172-6.206 5.43-6.982 1.034-11.636 3.362-10.343 5.689 0.776 1.293 0 1.552-2.069 0.776s-5.43 0.517-7.758 2.586c-2.069 2.069-4.396 3.103-5.43 2.327-0.776-1.034-1.552-0.259-1.552 1.293s-1.81 2.327-3.879 1.552c-2.069-1.034-3.879-0.259-3.879 1.552 0 1.552-1.034 2.069-2.586 1.293-1.293-0.776-2.586-0.517-2.586 1.034s-1.81 2.069-3.879 1.293c-2.069-1.034-3.879-0.259-3.879 1.293s-1.552 2.069-3.62 1.293c-2.069-0.776-4.396-0.259-5.172 1.293-1.034 1.552-3.362 2.069-5.43 1.034-2.069-0.776-3.879 0-3.879 1.552s-1.81 2.069-3.879 1.293c-2.069-1.034-5.43-0.259-7.24 1.034-3.62 3.103-5.689 3.362-26.893 3.362-7.499 0-13.964 0.776-14.739 1.81-1.293 2.327-69.818 1.552-85.592-0.776-5.689-0.776-12.154-1.81-14.222-1.81s-5.172-1.293-6.982-2.586c-1.81-1.293-4.396-1.81-5.947-0.776-1.293 0.776-2.586 0.259-2.586-1.293s-1.034-2.069-2.586-1.293c-1.293 0.776-2.586 0.259-2.586-1.293s-1.034-2.069-2.586-1.293c-1.293 0.776-2.586 0.259-2.586-1.293s-1.293-2.069-3.103-1.034c-1.552 1.034-2.069 0.776-1.293-0.776 2.069-3.103-4.396-9.309-6.723-6.723-1.034 0.776-1.81 0.517-2.069-0.776 0-1.293-0.776-4.655-1.552-7.499-1.552-6.982-1.552-11.636 0.259-19.135 1.552-6.982 6.465-13.705 9.051-11.895 1.034 0.517 5.43-1.034 9.568-3.362 5.947-3.62 12.929-4.396 33.358-3.879 33.616 0.776 98.78 0.776 108.606 0 4.396-0.259 9.309-1.552 11.119-2.844 1.81-1.034 4.913-1.293 6.982-0.517s4.396 0.259 5.172-1.034c0.776-1.293 3.103-1.81 5.172-0.776 2.069 0.776 3.879 0 3.879-1.81s1.81-2.586 3.879-1.552c2.069 0.776 3.879 0.259 3.879-1.034s1.552-1.81 3.62-1.034c1.81 0.776 5.172-0.517 7.499-2.586 2.069-2.069 4.396-3.103 5.43-2.327 0.776 1.034 1.552 0.259 1.552-1.293 0-1.81 0.776-2.844 2.069-2.844 4.137 0.776 7.24-0.517 13.446-5.689 3.62-2.844 4.913-4.655 3.362-3.62-1.81 0.776-3.362 1.034-3.362 0.259s3.879-3.103 8.792-5.172c5.689-2.327 9.309-5.947 10.343-10.602 1.034-3.879 2.586-6.465 3.362-5.43 2.586 2.327 9.051-8.533 6.982-11.895-1.034-1.552-0.776-2.069 0.776-1.293 3.362 2.069 6.723-5.172 4.137-9.051-1.034-1.81-0.259-2.069 1.81-0.776 2.586 1.552 3.103 1.034 1.81-2.069-1.034-2.586-0.517-4.396 1.034-4.396s2.327-1.81 1.552-3.879c-1.034-2.069-0.517-4.396 1.034-5.172 1.293-1.034 1.81-2.844 0.776-4.137-0.776-1.552-0.776-4.655 0.259-6.982 2.327-5.947 2.586-42.925 0.259-46.804-1.034-1.81-1.293-4.655-0.517-6.723s0.259-4.396-1.293-5.43c-1.552-0.776-2.069-3.103-1.293-5.172s0.259-3.62-1.293-3.62c-1.552 0-2.327-1.81-1.293-3.879 0.776-2.069 0.259-3.879-1.293-3.879s-2.069-1.034-1.293-2.327c2.069-3.103-1.034-10.861-3.362-9.568-1.034 0.776-3.362-1.034-5.172-4.137-2.586-4.137-2.586-4.913 0.259-3.103 5.947 3.62-3.103-6.982-22.238-25.341-16.549-16.291-20.17-18.618-25.341-17.842-1.293 0-2.069-0.776-2.069-2.327 0-3.362-14.998-10.861-18.101-9.051-1.552 0.776-2.586 0.259-2.586-1.293s-1.034-2.069-2.586-1.293c-1.293 0.776-2.586 0.259-2.586-1.293 0-1.81-1.81-2.586-3.879-1.552-2.069 0.776-3.879 0.259-3.879-1.293s-1.81-2.327-3.879-1.293c-2.069 0.776-3.879 0.259-3.879-1.293s-2.327-2.069-5.172-1.034c-2.844 0.776-5.172 0.517-5.172-1.034 0-1.293-2.069-2.586-4.396-2.586-2.586 0-8.792-0.517-13.705-1.552-4.913-0.776-11.895-1.81-15.515-2.327-3.62-0.259-6.982-1.034-7.758-1.552-5.43-2.844-74.473-3.879-102.141-1.293-9.826 0.776-20.428 1.552-23.273 1.552-2.586 0-6.465 1.293-8.275 2.586-1.552 1.552-4.396 2.069-5.689 1.293-1.293-1.034-3.362-0.259-4.137 1.293-1.034 1.552-4.655 2.069-8.016 1.293-3.62-1.034-6.206-0.517-6.206 1.034 0 1.81-2.069 2.327-5.172 1.293s-5.172-0.517-5.172 1.293c0 1.81-1.81 2.586-3.879 1.81-2.069-1.034-4.396-0.517-5.172 0.776s-3.103 1.81-5.172 0.776c-2.069-0.776-3.879 0-3.879 1.552s-1.81 2.069-3.879 1.293c-2.069-1.034-3.879-0.259-3.879 1.293s-1.81 2.069-4.396 1.034c-2.844-1.034-3.62-0.776-2.327 1.293s0.517 2.586-2.069 1.552c-2.327-0.776-4.137-0.259-4.137 1.293s-1.81 2.069-4.396 1.034c-2.844-1.034-3.62-0.776-2.327 1.293 1.034 2.069 0.517 2.586-1.81 1.552-2.069-0.776-5.689 0.517-7.758 2.844-2.327 2.327-4.655 3.879-4.913 3.62-2.327-1.552-12.154 3.62-11.119 5.689 0.776 1.293-0.259 1.552-2.327 0.776-2.327-0.776-4.655 0-5.43 2.069s-2.844 3.879-4.655 3.879c-3.362 0-25.083 13.446-25.083 15.515 0 0.517 1.293 0.259 3.103-0.776s2.069-0.776 1.034 1.034c-1.034 1.81-3.362 3.103-5.172 3.103s-5.43 1.81-8.275 4.137c-2.586 2.069-3.103 3.103-1.034 2.069 3.362-1.81 3.362-1.293 0.259 2.327-1.81 2.327-4.396 3.879-5.43 3.103-5.172-3.362-59.475 60.768-62.578 73.697-0.517 1.81-2.844 5.689-5.43 8.275-2.586 2.844-4.137 6.723-3.362 8.792s0.517 3.362-0.776 2.586c-2.844-1.81-5.947 5.689-3.62 9.309 1.034 1.81 0.259 2.069-1.81 0.776-2.586-1.552-3.103-1.034-1.81 2.069 0.776 2.586 0.517 4.396-1.034 4.396s-1.81 1.293-1.034 2.586c0.776 1.552 0.259 2.586-1.293 2.586-1.81 0-2.586 1.81-1.552 3.879 0.776 2.069 0.259 3.879-1.293 3.879s-2.327 1.81-1.293 3.879c0.776 2.069 0.259 3.879-1.293 3.879s-2.327 1.81-1.293 3.879c0.776 2.069 0.259 3.879-1.293 3.879s-2.069 2.327-1.034 5.43c1.293 4.137 1.034 4.913-1.293 3.62-2.586-1.552-2.844-0.259-1.552 4.913 1.034 4.137 0.517 6.723-1.293 6.723s-2.327 2.327-1.293 6.206c0.776 3.103 0.517 6.723-0.517 7.758-2.586 2.844-3.62 14.481-3.362 48.097 0 45.77 0.259 49.131 2.844 49.131 1.552 0 2.069 2.844 1.034 6.465-0.776 3.62-0.517 6.465 1.034 6.465s2.069 2.327 1.293 5.172c-0.776 2.844-0.259 5.172 1.293 5.172s2.069 2.586 1.034 5.689c-0.776 3.362-0.259 4.913 1.293 3.879 1.81-1.293 2.327 0.259 1.293 3.879-1.034 4.137-0.517 4.913 2.069 3.362s3.103-1.034 1.81 2.069c-0.776 2.586-0.517 4.396 0.776 4.396s1.81 1.81 1.034 3.879c-1.034 2.069-0.259 3.879 1.293 3.879s2.069 1.81 1.034 4.396c-1.034 2.844-0.776 3.62 1.293 2.327 2.069-1.034 2.586-0.517 1.552 1.81-0.776 2.069 0.259 5.43 2.327 7.24 1.81 2.069 3.62 4.655 3.62 5.689 0.517 6.206 6.982 17.067 9.309 15.515 1.552-0.776 1.81-0.259 0.776 1.293-1.034 1.81 3.103 10.343 9.051 19.135 12.154 17.584 61.543 69.301 66.457 69.301 1.81 0 3.103 1.034 3.103 2.327s3.103 4.137 6.723 6.723c4.655 2.844 6.206 3.362 4.913 1.034-1.293-2.069 1.034-0.259 4.655 3.62 3.879 3.879 8.275 6.465 9.568 5.689 1.552-0.776 2.586-0.259 2.586 1.293s1.034 2.327 2.327 1.552c1.293-0.776 3.103 0.259 3.879 2.586 0.776 2.069 2.586 3.103 4.137 2.327 1.293-0.776 2.586-0.259 2.586 1.293s1.293 2.069 2.586 1.293c1.552-0.776 2.586-0.259 2.586 1.293s1.293 2.069 2.586 1.293c1.552-0.776 2.586-0.259 2.586 1.293s1.293 2.069 2.586 1.293c1.552-0.776 2.586-0.259 2.586 1.293s1.293 2.069 2.586 1.293c1.552-0.776 2.586-0.259 2.586 1.293 0 1.81 1.81 2.586 3.879 1.552 2.069-0.776 3.879-0.259 3.879 1.293s1.293 1.81 2.586 1.034c1.552-0.776 2.586-0.259 2.586 1.293 0 1.81 1.81 2.586 3.879 1.552 2.069-0.776 3.879-0.259 3.879 1.293s1.81 2.327 3.879 1.293c2.069-0.776 3.879-0.259 3.879 1.034s1.81 1.81 3.879 1.034c2.069-1.034 3.879-0.259 3.879 1.552 0 1.552 1.034 2.327 2.327 1.293 1.293-0.776 3.362 0 4.137 1.552 1.034 1.293 3.362 2.069 5.43 1.293s3.62-0.259 3.62 1.293c0 1.552 1.81 2.327 3.879 1.293 2.069-0.776 3.879-0.259 3.879 1.293s2.327 2.069 5.172 1.034c3.103-1.034 5.172-0.517 5.172 1.293s1.81 2.586 3.879 1.552c2.069-0.776 3.879-0.259 3.879 1.293s2.327 2.069 4.913 1.034c2.844-0.776 5.689-0.517 6.465 1.034 0.776 1.293 3.879 1.81 6.723 1.034s5.172-0.259 5.172 1.293c0 1.293 2.586 2.586 5.947 2.844 3.103 0 9.826 0.776 14.739 1.552s15.774 1.81 24.048 2.327c8.275 0.517 15.774 1.81 16.808 2.844s13.964 1.034 28.962 0c14.998-1.034 33.099-2.327 40.081-2.844zM599.919 361.632c0-0.517-2.069-2.586-4.396-4.396-4.137-3.362-4.396-3.103-1.034 1.034s5.43 5.43 5.43 3.362zM260.913 756.493c-3.362-4.137-3.103-4.396 1.034-1.034s5.43 5.43 3.362 5.43c-0.517 0-2.586-2.069-4.396-4.396zM359.176 619.442l-6.206-7.24 7.24 6.206c6.465 5.947 8.275 8.016 6.206 8.016-0.517 0-3.62-3.103-7.24-6.982zM315.475 392.404c3.362-3.62 6.723-6.465 7.24-6.465 0.776 0-1.293 2.844-4.655 6.465s-6.723 6.465-7.24 6.465c-0.776 0 1.293-2.844 4.655-6.465zM219.798 348.703c0-0.517 2.069-2.586 4.655-4.396 3.879-3.362 4.137-3.103 0.776 1.034s-5.43 5.43-5.43 3.362zM802.651 181.139l-4.913-5.947 5.947 4.913c5.43 4.655 6.982 6.723 4.913 6.723-0.517 0-3.103-2.586-5.947-5.689z" />
<glyph unicode="&#xe924;" glyph-name="map-addon-alt" d="M800 861.2c-36.6-8.2-69.4-28-92-55.8-11.6-14.2-26.4-42.8-31.2-60.4-4-14.4-5.6-55.8-2.6-70 1.2-5.4 3.4-14.4 5.2-20 3-9.8 150.6-302.8 152.6-302.8s149.6 293 152.6 302.8c6 19 7.2 30 6.6 54-0.8 28.4-4 41.6-16.2 66-10.4 21.2-24.4 39-41.6 53-14.2 11.6-42.8 26.4-60.4 31.2-15.2 4.2-57.8 5.4-73 2zM852.2 797.2c18.8-4 32.8-11.8 47.2-26.4 37.6-37.4 37.4-96.2-0.2-134-37.8-37.8-96.6-37.8-134.4 0-37.6 37.8-37.8 96.6-0.2 134 24.2 24.4 54.2 33.4 87.6 26.4zM96.2 352.4l-96.2-192.4 256-128 256 128 256-128 256 128-53.4 107c-29.6 58.8-54.2 107-55 107-1 0-9.4-15.6-18.8-34.6l-17.2-34.4 29-58.2 29-58-73-36.6c-40.2-20-73.4-36.2-73.6-35.8-0.4 0.4-11.8 55.8-25.2 123.2l-24.4 122.6 4.4 4.6 4.4 4.8-15.2 30.4-15.4 30.6-7.8-8-8-7.8-191.8 127.8-191.8-127.8-127.8 127.8-96.2-192.2zM480 330v-114l-88.2-44.2c-48.6-24.2-88.6-43.6-89.2-43.2-0.4 0.6 9.4 52 21.8 114.6l22.6 113.4 65 43.6c35.8 24 65.6 43.6 66.6 43.6 0.8 0.2 1.4-51 1.4-113.8zM611 400.6c43.4-28.8 65.4-44.8 66-47.4 4.2-17 44.8-224 44.2-224.6-0.4-0.4-40.4 19-89 43.2l-88.2 44.2v114c0 62.8 0.4 114 1 114s30.2-19.6 66-43.4zM246.8 398.2l35.8-35.8-24.4-122.8c-13.6-67.4-24.8-122.8-25.2-123.2-0.2-0.4-33.4 15.8-73.6 35.8l-73 36.6 61.2 122.6c33.8 67.4 61.8 122.6 62.4 122.6s17.2-16.2 36.8-35.8z" />
<glyph unicode="&#xe928;" glyph-name="log-out" d="M972.8 460.8l-307.2 256v-153.6h-358.4v-204.8h358.4v-153.6l307.2 256zM153.6 819.2h409.6v102.4h-409.6c-56.32 0-102.4-46.080-102.4-102.4v-716.8c0-56.32 46.080-102.4 102.4-102.4h409.6v102.4h-409.6v716.8z" />
<glyph unicode="&#xe929;" glyph-name="login" d="M716.8 460.8l-307.2 256v-153.6h-358.4v-204.8h358.4v-153.6l307.2 256zM870.4 102.4h-409.6v-102.4h409.6c56.32 0 102.4 46.080 102.4 102.4v716.8c0 56.32-46.080 102.4-102.4 102.4h-409.6v-102.4h409.6v-716.8z" />
<glyph unicode="&#xe92a;" glyph-name="menus" d="M372 944.8c-178.4-52-313.6-190.4-359.2-366.4-16.8-64-16.8-196.8 0-261.6 45.6-176 198.4-328 372-368.8 65.6-15.2 188.8-15.2 254.4 0 175.2 41.6 331.2 197.6 372.8 372.8 15.2 65.6 15.2 188.8 0 254.4-40.8 173.6-192.8 326.4-368.8 372-67.2 17.6-208 16-271.2-2.4zM611.2 856c84.8-21.6 135.2-50.4 196.8-112 164-163.2 169.6-410.4 14.4-580.8-200-218.4-558.4-165.6-686.4 101.6-60 125.6-59.2 243.2 0.8 366.4 58.4 119.2 162.4 200.8 289.6 228.8 70.4 15.2 113.6 14.4 184.8-4zM229.6 641.6c-18.4-20.8-16.8-46.4 4-60.8 15.2-11.2 56-12.8 278.4-12.8s263.2 1.6 278.4 12.8c21.6 14.4 23.2 44 3.2 61.6-13.6 12-44.8 13.6-283.2 13.6-249.6 0-268.8-0.8-280.8-14.4zM233.6 475.2c-21.6-14.4-23.2-44-3.2-61.6 13.6-12 44.8-13.6 283.2-13.6 249.6 0 268.8 0.8 280.8 14.4 18.4 20.8 16.8 46.4-4 60.8-27.2 19.2-529.6 19.2-556.8 0zM242.4 312c-24.8-10.4-32-44-14.4-64 13.6-15.2 26.4-16 284.8-16 292.8 0 295.2 0 295.2 43.2 0 39.2-8 40.8-287.2 42.4-144.8 0.8-268.8-1.6-278.4-5.6z" />
<glyph unicode="&#xe92c;" glyph-name="progress-two" d="M921.6 716.8h-819.2c-56.32 0-102.4-46.080-102.4-102.4v-307.2c0-56.32 46.080-102.4 102.4-102.4h819.2c56.32 0 102.4 46.080 102.4 102.4v307.2c0 56.32-46.080 102.4-102.4 102.4zM921.6 307.2h-819.2v307.2h819.2v-307.2zM358.4 563.2h-204.8v-204.8h204.8v204.8zM614.4 563.2h-204.8v-204.8h204.8v204.8z" />
<glyph unicode="&#xe92d;" glyph-name="sound-mix" d="M256 890.88c0 28.314-22.938 30.72-51.2 30.72-28.314 0-51.2-2.406-51.2-30.72v-430.080h102.4v430.080zM153.6 30.72c0-28.211 22.886-30.72 51.2-30.72 28.262 0 51.2 2.509 51.2 30.72v174.080h-102.4v-174.080zM327.629 409.6h-245.76c-28.314 0-30.669-22.938-30.669-51.2v-51.2c0-28.314 2.355-51.2 30.669-51.2h245.811c28.16 0 30.72 22.886 30.72 51.2v51.2c0 28.262-2.56 51.2-30.771 51.2zM942.029 358.4h-245.811c-28.262 0-30.618-22.938-30.618-51.2v-51.2c0-28.314 2.355-51.2 30.669-51.2h245.811c28.16 0 30.72 22.886 30.72 51.2v51.2c0 28.262-2.56 51.2-30.771 51.2zM665.6 614.4c0 28.262-2.56 51.2-30.771 51.2h-245.76c-28.314 0-30.669-22.938-30.669-51.2v-51.2c0-28.314 2.355-51.2 30.669-51.2h245.811c28.16 0 30.72 22.886 30.72 51.2v51.2zM563.2 890.88c0 28.314-22.938 30.72-51.2 30.72-28.314 0-51.2-2.406-51.2-30.72v-174.080h102.4v174.080zM460.8 30.72c0-28.211 22.886-30.72 51.2-30.72 28.262 0 51.2 2.509 51.2 30.72v430.080h-102.4v-430.080zM870.4 890.88c0 28.314-22.938 30.72-51.2 30.72-28.314 0-51.2-2.406-51.2-30.72v-481.28h102.4v481.28zM768 30.72c0-28.211 22.886-30.72 51.2-30.72 28.262 0 51.2 2.509 51.2 30.72v122.88h-102.4v-122.88z" />
<glyph unicode="&#xe92e;" glyph-name="pages" d="M131.6 957.8c-6.2-0.8-19.4-4.6-29-8.2-45.2-17-78.4-51.8-95-99.6l-6.6-19v-566l4.6-15.6c14.8-51.4 52.8-91.6 102.4-108.2 23-7.6 48.4-9.2 151.2-9.2h94.8v80h-103.6c-89.2 0-105.2 0.4-114.4 3.2-23.4 7-43 25-52.4 48.2l-4.6 11.6v269c0 290.6-0.4 277.8 10.4 297.2 6.2 11 19.2 24 29.4 29.4 19 10 19 10 114 10.8 49.4 0.6 91.8 0.4 94.4-0.2 7.4-2 17.2-11.4 21.6-21.2 3.8-8.4 4.2-13.4 5.2-78 0.8-61 1.4-69.8 4.6-75.4 2-3.6 4.2-6.6 5.2-6.6s3.8 4.8 6.2 10.6c11 25.2 37 54.4 61.2 68.6 23.4 13.8 42.6 20 68 22.4l15 1.4-56.6 56c-31.2 31-64.2 62.2-73.6 69.6-19.6 15.6-40.2 26.6-55.8 29.4-13 2.4-180 2.2-196.6-0.2zM535 761.8c-64-6.8-115.8-50.4-135.4-113.8l-4.6-15-0.6-275c-0.4-185 0.2-279.4 1.6-288.6 5-32.8 20-61.8 44.8-86.6 19.2-19 38-30.8 63.6-39.4l18.6-6.4h372l19 6.6c26.4 9.2 44.2 20.2 63.2 39.2s30 36.8 39.2 63.2l6.6 19 0.6 191c0.4 118.8-0.2 195.8-1.4 203.6-2.4 15.2-10.6 31.8-25.6 52.4-14 18.8-204.4 209.4-223.6 223.8-19.6 14.4-39.6 24-55 26.2-15.8 2.4-160.8 2.2-183-0.2zM730 679.6c15.6-10.6 18-24.2 18-98.4 0-34.4 0.8-61.2 2.2-65.8 1-4.2 4.8-10.6 8-14.4 10.4-11.8 15.8-12.6 85.8-13.6 50.2-0.8 65-1.6 73.2-4.2 12.2-3.8 19.6-9.2 24.4-17.8 3.2-6 3.4-20 3.4-194.4 0-202.6 0.2-197-10.4-216.2-6-10.8-18.6-23.4-29.4-29.4-19-10.6-15.2-10.4-197.2-10.4-152 0-170 0.4-179.2 3.4-29.6 9.4-50.2 33.8-54.8 64.6-1.4 9.4-2 98.6-1.6 276l0.6 262 4.6 11.6c9.2 22.6 27.6 40.4 49.4 47.4 11.2 3.4 18.8 3.8 104.2 3.8l92.2 0.2 6.6-4.4zM552 409v-39h314v78h-314v-39zM552 290.6v-39.6l236 1v78h-236v-39.4zM552 172v-40h314v80h-314v-40zM158 605.6v-39.6h196v79h-196v-39.4zM158 487v-39h196v78h-196v-39zM158 369v-39h196v78h-196v-39z" />
<glyph unicode="&#xe92f;" glyph-name="files1" d="M543.488 446.496h-256v-28.992h256v28.992zM543.488 350.496h-256v-31.008h256v31.008zM384.512 831.488v-96.512h-97.024v-96.512h-94.496v-606.016h447.008v96.992h94.496v94.016h96.512v608h-446.496zM608.992 63.488h-384.992v546.016h384.992v-546.016zM703.488 158.496h-63.488v480h-321.504v65.504h384.992v-545.504zM800 254.496h-65.504v480.512h-319.008v65.504h384.512v-546.016zM543.488 159.008h-256v-31.008h256v31.008zM543.488 255.488h-256v-31.008h256v31.008zM543.968 543.488h-256v-32h256v32z" />
<glyph unicode="&#xe930;" glyph-name="swap" d="M716.8 716.8h-512v102.4l-204.8-179.2 204.8-179.2v102.4h512v153.6zM1024 281.6l-204.8 179.2v-102.4h-512v-153.6h512v-102.4l204.8 179.2z" />
<glyph unicode="&#xe931;" glyph-name="anchor" d="M222.208 171.008c62.276-62.413 144.637-104.761 236.562-116.524l2.030-0.212v406.528h-204.8v102.4h204.8v111.104c-60.168 21.723-102.4 78.337-102.4 144.815 0 84.831 68.769 153.6 153.6 153.6s153.6-68.769 153.6-153.6c0-66.478-42.232-123.092-101.33-144.477l-1.070-0.338v-111.104h204.8v-102.4h-204.8v-406.528c93.955 11.975 176.316 54.323 238.585 116.729l0.007 0.007-72.704 72.704h289.792l-144.896-144.896c-92.649-92.621-220.626-149.907-361.984-149.907s-269.336 57.286-361.986 149.908l-144.894 144.894h289.792l-72.704-72.704zM512 768c28.277 0 51.2 22.923 51.2 51.2s-22.923 51.2-51.2 51.2v0c-28.277 0-51.2-22.923-51.2-51.2s22.923-51.2 51.2-51.2v0z" />
<glyph unicode="&#xe932;" glyph-name="news-paper" d="M819.2 870.4h204.8v-768c0-84.831-68.769-153.6-153.6-153.6v0h-716.8c-84.831 0-153.6 68.769-153.6 153.6v0 870.4h819.2v-102.4zM819.2 768v-665.6c0-28.277 22.923-51.2 51.2-51.2v0c28.277 0 51.2 22.923 51.2 51.2v0 665.6h-102.4zM102.4 870.4v-768c0-28.277 22.923-51.2 51.2-51.2v0h571.904c-5.515 15.127-8.705 32.59-8.705 50.798 0 0.141 0 0.283 0.001 0.424v-0.022 768h-614.4zM204.8 460.8h409.6v-102.4h-409.6v102.4zM204.8 256h409.6v-102.4h-409.6v102.4zM204.8 768h409.6v-204.8h-409.6v204.8z" />
<glyph unicode="&#xe933;" glyph-name="post-grid" d="M64.6 861c-15.4-4.2-26-10.2-37.6-21.2-12-11.4-19.6-24.4-24-40.8-4.6-17.6-4.6-524.2 0-541.6 4.4-16.8 10.2-26.8 22.8-39.4 9.8-9.8 29.8-22 36-22 1.6 0 2.2 75.8 2.2 252.6 0 277.6-0.4 266.8 12.4 293 8.8 17.8 28.2 37.2 46 46 26.4 13 9 12.4 357.4 12.4h316.6l-1.4 5.6c-2 8-10.6 22-19.6 32-10 10.6-21.6 17.6-37.6 22.6-11.8 3.6-24.2 3.8-337.4 3.6-273.8 0-327-0.6-335.8-2.8zM160.6 765c-15.4-4.2-26-10.2-37.6-21.2-12-11.4-19.6-24.4-24-40.8-4.6-17.6-4.6-524.2 0-541.6 4.4-16.8 10.2-26.8 22.8-39.4 9.8-9.8 29.8-22 36-22 1.6 0 2.2 75.8 2.2 252.6 0 277.6-0.4 266.8 12.4 293 8.8 17.8 28.2 37.2 46 46 26.4 13 9 12.4 357.2 12.4 221.8 0 316.4 0.6 316.4 2.2 0 6.2-12.2 26.2-22 36-12.6 12.6-22.6 18.4-39.4 22.8s-653.8 4.2-670 0zM256.6 669c-5.8-1.6-14.4-4.8-19-7.2-11.6-5.8-28-21.8-34.2-33.4-11.8-21.8-11.4-9.4-11.4-293.6 0-249.4 0.2-261 3.8-272.6 2-6.6 6-16 8.8-20.6 6.2-10.8 22.2-25.8 33-31.4 20.8-10.6 4.6-10.2 370.4-10.2 370.6 0 350.2-0.6 372.4 11.4 11.4 6.2 27.6 22.6 33.4 34.2 10.6 20.6 10.2 11.2 10.2 290.4 0 279 0.4 269.8-10.2 290.4-5.6 10.8-20.6 26.8-31.4 33-4.6 2.8-14 6.8-20.6 8.8-11.8 3.6-24.6 3.8-353.4 3.6-287.6 0-343-0.6-351.8-2.8zM688.2 607c7.6-4 15.4-14 17.8-23 6.4-24-18.2-48.4-42.4-41.8-18 4.8-30.2 24.8-25.6 42 6 21.8 30.4 33 50.2 22.8zM816.2 607c7.6-4 15.4-14 17.8-23 6.4-24-18.2-48.4-42.4-41.8-18 4.8-30.2 24.8-25.6 42 6 21.8 30.4 33 50.2 22.8zM944.2 607c7.6-4 15.4-14 17.8-23 6.4-24-18.2-48.4-42.4-41.8-18 4.8-30.2 24.8-25.6 42 6 21.8 30.4 33 50.2 22.8zM960 281c0-218.6 0.6-207.4-12-214-5.2-2.6-45.2-3-340-3s-334.8 0.4-340 3c-12.6 6.6-12-4.6-12 214v199h704v-199z" />
<glyph unicode="&#xe934;" glyph-name="servers" d="M0 870.4c0 56.32 46.080 102.4 102.4 102.4h819.2c56.554 0 102.4-45.846 102.4-102.4v0-102.4c0-56.554-45.846-102.4-102.4-102.4v0h-819.2c-56.554 0-102.4 45.846-102.4 102.4v0 102.4zM0 512c0 56.32 46.080 102.4 102.4 102.4h819.2c56.554 0 102.4-45.846 102.4-102.4v0-102.4c0-56.554-45.846-102.4-102.4-102.4v0h-819.2c-56.554 0-102.4 45.846-102.4 102.4v0 102.4zM0 153.6c0 56.32 46.080 102.4 102.4 102.4h819.2c56.554 0 102.4-45.846 102.4-102.4v0-102.4c0-56.554-45.846-102.4-102.4-102.4v0h-819.2c-56.554 0-102.4 45.846-102.4 102.4v0 102.4zM614.4 870.4v-102.4h102.4v102.4h-102.4zM819.2 870.4v-102.4h102.4v102.4h-102.4zM614.4 512v-102.4h102.4v102.4h-102.4zM819.2 512v-102.4h102.4v102.4h-102.4zM614.4 153.6v-102.4h102.4v102.4h-102.4zM819.2 153.6v-102.4h102.4v102.4h-102.4z" />
<glyph unicode="&#xe935;" glyph-name="pencil" d="M864 960c88.364 0 160-71.634 160-160 0-36.020-11.91-69.258-32-96l-64-64-224 224 64 64c26.742 20.090 59.978 32 96 32zM64 224l-64-288 288 64 592 592-224 224-592-592zM715.578 596.422l-448-448-55.156 55.156 448 448 55.156-55.156z" />
<glyph unicode="&#xe936;" glyph-name="profile1" d="M864 960h-768c-52.8 0-96-43.2-96-96v-832c0-52.8 43.2-96 96-96h768c52.8 0 96 43.2 96 96v832c0 52.8-43.2 96-96 96zM832 64h-704v768h704v-768zM256 384h448v-64h-448zM256 256h448v-64h-448zM320 672c0 53.019 42.981 96 96 96s96-42.981 96-96c0-53.019-42.981-96-96-96s-96 42.981-96 96zM480 576h-128c-52.8 0-96-28.8-96-64v-64h320v64c0 35.2-43.2 64-96 64z" />
<glyph unicode="&#xe937;" glyph-name="pricing-alt" d="M479 910.8c-64.2-6.8-115.4-21-168-46.8-114-56-200-155.6-239-277.2-15.6-48.6-20.8-84.6-20.8-140.8 0-46.4 2.6-71 12-109.8 24-98.6 81-188.4 159.6-251.8 65.8-53.2 141.6-86.4 227.2-99.8 32-4.8 100-4.8 132 0 207.2 32 363.2 188.2 395.4 395.4 4.8 32 4.8 100 0 132-7.8 50.2-21.6 94-43.4 139-67.2 137.2-197.2 232.4-350 256-20.2 3-88.2 5.6-105 3.8zM556.2 868c135.2-13.8 252.6-88.4 322.8-205.4 44.8-74.4 65.2-165.4 57-253.6-9.4-99.2-51.4-188.4-122-259-70.4-70.4-160.2-112.6-259-122-162.2-15.2-317.2 64-402 205.4-45 74.8-65.6 167.4-56.8 255.8 15.2 154 114.2 288 256.8 347.8 63.8 26.8 135.8 37.8 203.2 31zM383.6 502l0.4-206h-168v240h164v62h-171l-0.8-155-0.6-155h176.4v-106h276v110.6l88.6-1.2 88.8-1.4 1.2 112.6c0.8 61.8 2 132.4 2.8 157l1.2 44.4h-180.6v-62h172v-82.6c0-45.6-0.6-100.4-1.4-122l-1.2-39.4h-46.4c-25.4 0-64 0.6-85.6 1.4l-39.4 1.2v407.4h-277l0.6-206zM654 412v-224h-264v448h264v-224z" />
<glyph unicode="&#xe938;" glyph-name="service" d="M437.2 899.6c-5.4-33.4-10.2-62.2-10.8-64-0.4-2.2-5-4.6-12.2-6.6-35-9.8-72.4-25-99-40.6l-13.8-8-106 76-44.8-44.8c-24.4-24.4-44.6-45.2-44.6-45.8s16.6-25 36.8-54l37-52.6-7-12.2c-16.2-27.6-31.4-63.6-39.6-93.8-2.8-9.6-5.2-18-5.6-18.4s-29.4-5.4-64.2-11.2l-63.4-10.6v-128.2l60.6-10.6c33.2-5.8 62-10.8 63.8-11.4 2.2-0.6 4.6-5.2 6.6-12.4 9.6-35.2 25-72.6 40.4-99.2l8.2-13.8-76-106 44.8-44.8c24.4-24.4 45.2-44.6 45.8-44.6s25 16.6 54 36.8l52.6 37 12.2-7c28-16.4 62.6-31 94.6-39.8 9.2-2.6 17.2-5 17.6-5.4s5.4-29.4 11.2-64.2l10.6-63.4h128l11 62.2c6 34 11.4 63 12.2 64 0.6 1.2 8.8 4.2 18 6.6 32.2 9.2 66.8 23.6 95 40l12.2 7 52.6-36.8c28.8-20.4 53.2-37 53.8-37s21.4 20.2 46 44.8l44.6 44.6-76 105.6 7 12c16.2 28 30.8 62.6 39.6 94.8 2.6 9.2 5.6 17.4 6.4 18.2s29.8 6.2 64.2 12.2l62.4 10.6v128.2l-63.2 10.2c-34.6 5.8-63.4 10.8-64 11.4-0.4 0.4-3 8.6-5.6 18-8.2 30-23.8 66.8-40 94.6l-7 12.2 36.8 52.6c20.4 28.8 37 53 37 53.8 0 0.6-20.2 21.4-44.6 45.8l-44.8 44.8-105.6-76-12 6.8c-28 16.4-63 31-94.8 39.8-9.2 2.6-17.4 5.6-18.2 6.4s-6.2 29.8-12.2 64.2l-10.8 62.4h-128.2l-9.6-60.4zM561 720.8c10-1.6 27.4-6.2 39-10 95.4-31.8 167.6-115.4 185.2-214.8 4.6-25.2 4.6-70.8 0-96-20.2-114-111.2-205-225.2-225.2-25.2-4.6-70.8-4.6-96 0-114 20.2-204.8 111-225.2 225.2-4.4 25.4-4.4 70.6 0 96 24.4 136 146.6 234.8 283.2 228.8 11.6-0.6 29.2-2.4 39-4zM477.2 642c-13-2.4-40-11.4-52.2-17.4-56.4-28.2-97.8-84.2-107.2-145.2-3-19-1.2-65 3.2-79.4 9.8-32.8 22.8-57.8 41.4-79.4 26.6-31.2 57.6-50.4 102.6-64 9.6-2.8 19-3.6 47-3.6 37 0 42 0.8 72 12.2 48.4 18 92.8 62.4 110.8 110.8 11.4 30 12.2 35 12.2 72 0 28-0.8 37.4-3.6 47-13.6 45-32.8 76-64 102.6-21.6 18.6-46.2 31.4-79.4 41.4-12.8 4-67 5.8-82.8 3zM536.8 542.8c72.8-18.8 97.6-110.4 44.2-163.8-52.8-53-142.6-29.6-163.2 42.6-20.6 72 46 140 119 121.2z" />
<glyph unicode="&#xe939;" glyph-name="note-text" d="M192 608v-480.040c0-17.924 14.434-31.96 32.239-31.96h447.761v159.811c0 35.82 28.624 64.189 63.933 64.189h128.067v288h-672zM192 640h672v95.781c0 17.821-14.309 32.219-31.96 32.219h-608.080c-17.924 0-31.96-14.309-31.96-31.96v-96.040zM688 64h-463.997c-35.348 0-64.003 28.852-64.003 64.028v607.945c0 35.361 28.852 64.028 64.028 64.028h607.945c35.361 0 64.028-28.624 64.028-63.81v-448.19l-192-224h-16zM704 112l150.398 176h-118.503c-17.475 0-31.896-14.453-31.896-32.281v-143.719zM256 512v-32h544v32h-544zM256 416v-32h544v32h-544zM256 320v-32h352v32h-352zM256 224v-32h352v32h-352z" />
<glyph unicode="&#xe93a;" glyph-name="share" d="M736.2 872c-34.4-7.2-63.6-23-88.4-47.8-20.4-20.6-33.4-41.4-42.2-68.2-5.2-16.2-6.2-22.8-7-45-0.6-14.2-0.2-29.6 1-34.2l1.8-8.2-216.8-108.4-8.8 9c-13.4 14-41 31.4-60.4 38.4-24.2 8.8-40 11-68.2 10-44-2-79.6-17.6-111.4-49.4-20.4-20.4-33.2-41-42.2-68.2-6.2-18.4-6.4-20.2-6.4-52s0.2-33.6 6.4-52c8.8-26.6 21.8-47.4 41.2-67 19.2-19.2 36.2-30.8 58.2-39.2 25.4-9.8 40.4-12.4 70-11.2 22.6 0.8 28.6 1.6 45.4 7.4 23 7.6 47 21.8 64.2 38l12.4 11.6 216.4-108.6-2-8c-1-4.4-1.4-19.6-0.8-34 0.8-22.2 1.8-28.8 7-45 8.8-26.4 21.6-47.4 41.2-67 34.6-34.6 73.2-51 121.2-51 47.4 0 86.6 16.4 120.2 49.8 33.4 33.6 49.8 72.8 49.8 120.2 0 48-16.4 86.6-51 121.2-19.6 19.6-40.6 32.4-67 41.2-16.2 5.2-22.8 6.2-45 7-49.4 1.8-88.6-12.6-123.8-45.6l-12.2-11.4-216.2 108.6 1.4 6c2 8.6 2 48.8 0 57.2l-1.6 7.2 216.8 108.4 8.8-9c20.6-21.2 58.4-41 88.8-46.6 16.2-3 49.4-2.6 65 0.6 33.4 7 61.6 22.4 86.2 47 33.4 33.6 49.8 72.8 49.8 120.2 0 48-16.4 86.6-51 121.2-19.6 19.6-40.6 32.4-67 41.2-17 5.4-22 6.2-47 6.8-15.4 0.4-32-0.2-36.8-1.2zM782.2 788c45.6-8.6 77-52 70-96.2-7.6-46.6-51.4-79.2-96.4-72-37.2 6-65.4 34.2-72 71.8-6.2 34.4 14.6 73.4 47 88.6 19.6 9.2 33.2 11.2 51.4 7.8zM270.2 532c45.6-8.6 77-52 70-96.2-7.6-46.6-51.4-79.2-96.4-72-37.2 6-65.4 34.2-72 71.8-6.2 34.4 14.6 73.4 47 88.6 19.6 9.2 33.2 11.2 51.4 7.8zM782.2 276c45.6-8.6 77-52 70-96.2-7.6-46.6-51.4-79.2-96.4-72-37.2 6-65.4 34.2-72 71.8-6.2 34.4 14.6 73.4 47 88.6 19.6 9.2 33.2 11.2 51.4 7.8z" />
<glyph unicode="&#xe93b;" glyph-name="file-picture" d="M832 64h-640v128l192 320 263-320 185 128v-256zM832 480c0-53.020-42.98-96-96-96-53.022 0-96 42.98-96 96s42.978 96 96 96c53.020 0 96-42.98 96-96zM917.806 730.924c-22.212 30.292-53.174 65.7-87.178 99.704s-69.412 64.964-99.704 87.178c-51.574 37.82-76.592 42.194-90.924 42.194h-496c-44.112 0-80-35.888-80-80v-864c0-44.112 35.888-80 80-80h736c44.112 0 80 35.888 80 80v624c0 14.332-4.372 39.35-42.194 90.924zM785.374 785.374c30.7-30.7 54.8-58.398 72.58-81.374h-153.954v153.946c22.984-17.78 50.678-41.878 81.374-72.572zM896 16c0-8.672-7.328-16-16-16h-736c-8.672 0-16 7.328-16 16v864c0 8.672 7.328 16 16 16 0 0 495.956 0.002 496 0v-224c0-17.672 14.326-32 32-32h224v-624z" />
<glyph unicode="&#xe93c;" glyph-name="note-list" d="M688 64h-463.997c-35.348 0-64.003 28.852-64.003 64.028v607.945c0 35.361 28.852 64.028 64.028 64.028h607.945c35.361 0 64.028-28.624 64.028-63.81v-448.19l-192-224h-16zM192 608v-480.040c0-17.924 14.434-31.96 32.239-31.96h447.761v159.811c0 35.82 28.624 64.189 63.933 64.189h128.067v288h-672zM192 640h672v95.781c0 17.821-14.309 32.219-31.96 32.219h-608.080c-17.924 0-31.96-14.309-31.96-31.96v-96.040zM704 112l150.398 176h-118.503c-17.475 0-31.896-14.453-31.896-32.281v-143.719zM416 384v-32h224v32h-224zM256 416h96v-96h-96v96zM288 384v-32h32v32h-32zM416 512v-32h384v32h-384zM256 544h96v-96h-96v96zM288 512v-32h32v32h-32zM416 256v-32h192v32h-192zM256 288h96v-96h-96v96zM288 256v-32h32v32h-32z" />
<glyph unicode="&#xe93d;" glyph-name="folder-open" d="M832 0l192 512h-832l-192-512zM128 576l-128-576v832h288l128-128h416v-128z" />
<glyph unicode="&#xe93e;" glyph-name="copy" d="M640 704v256h-448l-192-192v-576h384v-256h640v768h-384zM192 869.49v-101.49h-101.49l101.49 101.49zM64 256v448h192v192h320v-192l-192-192v-256h-320zM576 613.49v-101.49h-101.49l101.49 101.49zM960 0h-512v448h192v192h320v-640z" />
<glyph unicode="&#xe93f;" glyph-name="slider" horiz-adv-x="1525" d="M288.681 869.583c-3.268-6.536-4.357-201.532-3.268-432.477l3.268-419.404 450.996-3.268c354.043-2.179 453.174 0 460.8 10.894 9.804 16.34 11.983 814.843 2.179 840.987-5.447 15.251-56.647 17.43-457.532 17.43-351.864 0-453.174-3.268-456.443-14.162zM1108.97 511.183l-3.268-286.502-367.115-3.268-368.204-2.179v577.362h740.766l-2.179-285.413zM466.247 736.681c-91.506-51.2-58.826-179.745 45.753-179.745 122.009 0 136.17 169.94 16.34 190.638-19.609 3.268-45.753-1.089-62.094-10.894zM814.843 603.779c-9.804-10.894-37.038-51.2-62.094-90.417-25.055-38.128-51.2-74.077-58.826-78.434s-40.306-5.447-75.166-2.179l-61.004 6.536-55.557-57.736c-61.004-65.362-84.97-103.489-72.987-115.472 9.804-10.894 531.609-18.519 580.63-8.715 18.519 3.268 35.949 13.072 39.217 20.698 5.447 13.072-141.617 284.323-176.477 325.719-18.519 23.966-37.038 22.877-57.736 0zM123.098 534.060c-46.843-42.485-86.060-80.613-88.238-84.97-3.268-9.804 166.672-153.6 183.013-153.6 6.536 0 10.894 55.557 10.894 157.957 0 95.864-4.357 157.957-10.894 157.957-5.447 0-49.021-34.86-94.774-77.345zM1268.017 595.064c-6.536-17.43 4.357-289.77 11.983-297.396 6.536-7.626 33.77 13.072 110.026 81.702l74.077 68.63-79.523 72.987c-99.132 90.417-107.847 96.953-116.562 74.077z" />
<glyph unicode="&#xe940;" glyph-name="document-text" d="M624 864h16l192-224v-576.295c0-34.963-28.617-63.705-63.918-63.705h-480.165c-35.408 0-63.918 28.759-63.918 64.235v735.531c0 35.488 28.693 64.235 64.088 64.235h335.912zM608 832h-320.142c-17.595 0-31.858-14.568-31.858-31.855v-736.291c0-17.593 14.551-31.855 31.999-31.855h480.003c17.672 0 31.999 14.238 31.999 31.789v544.211h-128.067c-35.309 0-63.933 28.37-63.933 64.189v159.811zM640 816v-143.719c0-17.828 14.421-32.281 31.896-32.281h118.503l-150.398 176zM320 640v-32h160v32h-160zM320 736v-32h224v32h-224zM320 544v-32h416v32h-416zM320 448v-32h320v32h-320zM320 352v-32h416v32h-416zM320 256v-32h288v32h-288zM320 160v-32h416v32h-416z" />
<glyph unicode="&#xe941;" glyph-name="document-text1" d="M624 864h16l192-224v-576.295c0-34.963-28.617-63.705-63.918-63.705h-480.165c-35.408 0-63.918 28.759-63.918 64.235v735.531c0 35.488 28.693 64.235 64.088 64.235h335.912zM608 832h-320.142c-17.595 0-31.858-14.568-31.858-31.855v-736.291c0-17.593 14.551-31.855 31.999-31.855h480.003c17.672 0 31.999 14.238 31.999 31.789v544.211h-128.067c-35.309 0-63.933 28.37-63.933 64.189v159.811zM640 816v-143.719c0-17.828 14.421-32.281 31.896-32.281h118.503l-150.398 176zM320 768v-64h32v32h32v-128h32v128h32v-32h32v64h-160zM320 448v-32h416v32h-416zM320 544v-32h416v32h-416zM320 352v-32h416v32h-416zM320 256v-32h416v32h-416zM320 160v-32h416v32h-416z" />
<glyph unicode="&#xe942;" glyph-name="spacer" d="M488 920c0-4-8-16-17.6-25.6-24-24.8-135.2-150.4-149.6-168-10.4-13.6-0.8-14.4 179.2-14.4 116 0 188 3.2 186.4 7.2-2.4 7.2-100 123.2-148 176.8-10.4 11.2-18.4 22.4-18.4 25.6 0 4-7.2 6.4-16 6.4s-16-3.2-16-8zM61.6 754.4c-3.2-2.4-5.6-116-5.6-252v-246.4h136c75.2 0 136 2.4 136 4.8s-4 11.2-8 20c-8 13.6-17.6 15.2-112 15.2h-104v416h188l27.2 48h-126.4c-69.6 0-128.8-2.4-131.2-5.6zM680 753.6c0-4 8-14.4 18.4-24 16.8-16 27.2-17.6 116-17.6h97.6v-416h-98.4c-98.4 0-117.6-4.8-117.6-29.6 0-8 28.8-10.4 132-10.4h132l-1.6 250.4-2.4 249.6-137.6 2.4c-76 0.8-138.4-0.8-138.4-4.8zM328 288.8c0-8.8 176-208.8 184-208.8 3.2 0 30.4 28 60 61.6 29.6 34.4 63.2 73.6 75.2 86.4 12 13.6 28.8 33.6 36 46.4l14.4 21.6h-184.8c-101.6 0-184.8-3.2-184.8-7.2z" />
<glyph unicode="&#xe943;" glyph-name="tab-alt" d="M0 448v-362h1024v724h-1024v-362zM341 635l-1.4-89h598.4v-374h-852v552h256.6l-1.6-89zM628 678v-46h-202v92h202v-46zM938 678v-46h-226v92h226v-46z" />
<glyph unicode="&#xe944;" glyph-name="documents" d="M223.918 799.945l0.083 0.055c0 0 0 0-0.001 0s0 0 0.001 0c0.126 35.38 28.694 64 63.917 64 0.209 35.38 28.854 64 64.171 64h351.912l192-224v-576.295c0-34.963-28.617-63.705-63.918-63.705-0.209-35.38-28.777-64-64-64-0.209-35.38-28.777-64-64-64h-480.165c-35.408 0-63.918 28.759-63.918 64.235v735.531c0 35.488 28.617 64.235 63.918 64.235v-0.055zM223.999 768c-17.672 0-31.999-14.568-31.999-31.855v-736.291c0-17.593 14.551-31.855 31.999-31.855h480.003c17.672 0 31.999 14.568 31.999 31.855l-448.082 0.145c-35.408 0-63.918 28.759-63.918 64.235v703.765c0 0 0 0-0.001 0.001v-0.001zM287.999 832c-17.672 0-31.999-14.568-31.999-31.855v-736.291c0-17.593 14.551-31.855 31.999-31.855h480.003c17.672 0 31.999 14.568 31.999 31.855v0.145h-448.082c-35.408 0-63.918 28.759-63.918 64.235v703.765h-0.001zM672 896h-320.142c-17.595 0-31.858-14.568-31.858-31.855v-736.291c0-17.593 14.551-31.855 31.999-31.855h480.003c17.672 0 31.999 14.238 31.999 31.789v544.211h-128.067c-35.309 0-63.933 28.37-63.933 64.189v159.811zM704 880v-143.719c0-17.828 14.421-32.281 31.896-32.281h118.503l-150.398 176z" />
<glyph unicode="&#xe945;" glyph-name="timer" d="M155.2 923.2c1.6-41.6 3.6-43.2 46.8-43.2h32.8l2.4-46.8c5.2-108.8 34-192 89.6-260.4 63.6-78.4 68.8-86 73.6-107.2 8-36.4-1.2-61.2-52.4-137.6-74-111.2-98.8-171.6-108.8-266.4l-4.8-45.6h-32.4c-43.2 0-45.2-2-46.8-43.2l-1.2-32.8h718v30c0 41.2-4.8 46-48 46h-32v16.4c0 27.2-12 94.8-22.4 127.2-15.6 47.6-38 90.4-82 157.2-51.2 76.8-60.8 97.6-61.2 129.2-0.4 30 10.4 51.2 50 96 66.4 76 94.8 136 109.6 234 3.2 20.8 6 52.8 6 71.2v32.8h32c43.2 0 48 4.8 48 46v30h-718l1.2-32.8zM740 849.2c0-60.8-14.8-133.6-38-189.2-16.4-39.2-33.2-64.8-77.2-117.2-44.4-52.8-50.8-65.2-50-96.8 0.4-31.6 8-48 57.2-122.4 72-109.2 98.4-176.4 106.4-274.4l2.8-33.2h-18c-16.4 0-18.8 1.2-23.2 12-7.6 18.8-38.8 44-80.4 65.6-74.8 38.8-86.8 46.8-96.4 65.2-5.2 9.6-10 17.2-11.2 17.2s-5.2-7.2-9.2-16c-8-17.6-24.4-28.4-94.8-64.4-42.8-21.6-88-59.2-88-73.2 0-4.8-4-6.4-16.4-6.4h-16.8l2.8 32.8c6 66.8 27.2 140.8 56.8 194.8 8 14.4 31.2 51.6 52 82.4 46.4 70 55.2 88.8 55.2 120 0.4 31.2-9.2 50.4-46 92-55.2 62.8-85.6 118-103.2 187.2-9.2 35.2-16.4 91.6-16.4 128v26.8h452v-30.8zM356 672c0-2.8 50-60 99.6-114 42.4-46.4 50.4-61.2 56-101.2 2-16.4 4.4-30.4 5.6-31.2 0.8-0.8 3.6 12.8 6 30.8 2.8 17.6 7.6 38 11.2 45.6 3.2 7.2 28 37.2 54.4 66.8 44 48.4 73.2 82.4 86.4 99.6 2.8 4-10-0.8-30-10.8-86.8-43.6-165.2-44.4-251.6-1.6-20.8 10-37.6 17.2-37.6 16z" />
<glyph unicode="&#xe946;" glyph-name="stop-watch" d="M247.343 607.284c48.95 44.891 110.085 76.707 177.873 89.914-25.155 20.538-41.216 51.794-41.216 86.801 0 61.856 50.144 112 112 112s112-50.144 112-112c0-35.007-16.061-66.263-41.216-86.801v0c67.788-13.208 128.924-45.023 177.873-89.914v0l39.343 39.343-22.627 22.627 22.627 22.627 67.882-67.882-22.627-22.627-22.627 22.627-39.343-39.343c60.060-65.49 96.716-152.793 96.716-248.657 0-203.241-164.759-368-368-368s-368 164.759-368 368c0 95.864 36.656 183.167 96.716 248.657l-39.343 39.343-22.627-22.627-22.627 22.627 67.882 67.882 22.627-22.627-22.627-22.627 39.343-39.343zM516.695 379.322l99.796 99.796c6.121 6.121 16.456 6.326 22.705 0.077 6.066-6.066 6.214-16.414-0.077-22.705l-99.796-99.796c2.999-6.266 4.678-13.284 4.678-20.695 0-26.51-21.49-48-48-48-7.41 0-14.428 1.679-20.695 4.678l-35.796-35.796c-6.121-6.121-16.456-6.326-22.705-0.077-6.066 6.066-6.214 16.414 0.077 22.705l35.796 35.796c-2.999 6.266-4.678 13.284-4.678 20.695 0 26.51 21.49 48 48 48 7.41 0 14.428-1.679 20.695-4.678v0 0zM512 705.6c36.516 7.412 64 39.696 64 78.4 0 44.183-35.817 80-80 80s-80-35.817-80-80c0-38.703 27.484-70.987 64-78.4v62.4h-32v32h96v-32h-32v-62.4zM256.52 320.072h79.857c8.668 0 15.695 7.422 15.695 16 0 8.837-6.882 16-15.695 16h-79.847c7.919 119.766 103.694 215.519 223.47 223.403v-79.78c0-8.668 7.422-15.695 16-15.695 8.837 0 16 6.882 16 15.695v79.78c119.776-7.884 215.551-103.636 223.47-223.403h-79.847c-8.668 0-15.695-7.422-15.695-16 0-8.837 6.882-16 15.695-16h79.857c-7.852-119.834-103.656-215.661-223.48-223.547v79.924c0 8.668-7.422 15.695-16 15.695-8.837 0-16-6.882-16-15.695v-79.924c-119.824 7.887-215.628 103.714-223.48 223.547zM496 0c185.568 0 336 150.432 336 336s-150.432 336-336 336c-185.568 0-336-150.432-336-336s150.432-336 336-336v0zM496 64c150.221 0 272 121.779 272 272s-121.779 272-272 272c-150.221 0-272-121.779-272-272s121.779-272 272-272v0zM496 320c8.837 0 16 7.163 16 16s-7.163 16-16 16c-8.837 0-16-7.163-16-16s7.163-16 16-16v0z" />
<glyph unicode="&#xe947;" glyph-name="video-slider" horiz-adv-x="1280" d="M315.392 778.24c-29.184-10.24-44.544-23.552-57.856-48.64l-11.776-22.528 1.024-274.944 1.536-274.944 15.36-22.016c30.72-43.52 14.848-41.472 349.696-41.472 184.32 0 300.544 2.048 308.736 5.12 22.528 8.704 44.544 31.232 53.248 53.76 7.168 18.944 7.68 53.76 6.656 293.376l-1.536 271.36-14.336 21.504c-7.68 11.776-23.552 26.624-35.84 32.768l-21.504 11.776-286.72 1.024c-237.056 1.024-290.304 0-306.688-6.144zM914.944 739.84c8.704-3.072 17.92-11.264 21.504-18.432 8.192-17.92 8.192-549.376 0-567.296-3.584-7.168-12.8-15.36-21.504-18.432-20.992-7.168-580.096-7.168-601.088 0-8.704 3.072-17.92 11.264-21.504 18.432-7.68 17.92-8.192 549.376 0 567.296 3.072 6.656 10.752 14.848 16.896 17.408 14.848 7.68 584.704 8.192 605.696 1.024zM537.6 596.48c-6.656-4.096-7.68-27.136-9.216-144.384-1.536-148.992 0-170.496 12.288-175.104 10.752-4.096 12.288-3.072 117.248 73.216 109.056 78.848 104.96 75.264 104.96 86.528 0 12.8-3.584 16.384-51.2 50.176-24.064 16.896-69.632 49.664-101.376 72.704-32.256 23.040-59.904 41.984-61.44 41.984-2.048 0-7.168-2.56-11.264-5.12zM630.784 497.152c84.48-60.928 79.872-56.32 68.608-69.12-5.632-6.144-11.776-10.752-13.824-10.752s-27.136-17.408-55.296-38.4c-28.16-20.992-53.76-38.4-56.832-38.4s-5.12 32.768-5.12 97.28c0 60.928 2.048 97.28 5.12 97.28 2.56 0 28.672-16.896 57.344-37.888zM132.096 758.272l-14.336-12.8v-613.376l12.8-13.824c8.192-8.704 17.408-13.312 27.648-13.312 19.968 0 55.296 13.824 58.88 23.040s-11.264 24.576-20.48 20.992c-3.584-1.536-14.848-4.096-24.576-6.144l-18.432-3.072v595.968l18.432-3.072c9.728-2.048 20.992-4.608 24.576-6.144 8.192-3.072 24.576 12.288 22.016 20.48-2.56 8.704-28.16 19.456-51.712 22.016-17.408 2.048-23.552 0-34.816-10.752zM1028.096 759.808c-10.752-5.632-19.456-13.312-19.456-17.408 0-12.288 17.408-17.92 36.352-12.8 9.728 3.072 20.48 5.12 23.552 5.12 5.12 0 6.656-61.952 6.656-297.472v-297.472l-18.432 3.072c-9.728 2.048-20.992 4.608-24.576 6.144-9.216 3.584-24.064-11.776-20.48-20.992 3.584-8.704 38.912-23.040 57.856-23.040 8.704 0 19.968 5.12 28.16 13.312l13.312 13.824v613.376l-13.312 12.288c-16.896 15.872-43.008 16.384-69.632 2.048z" />
<glyph unicode="&#xe948;" glyph-name="widget-area" horiz-adv-x="1183" d="M107.52 442.88v-430.080h977.92v860.16h-977.92v-430.080zM967.68 688.64v-61.44h-742.4v122.88h742.4v-61.44zM537.6 442.88v-61.44h-312.32v122.88h312.32v-61.44zM967.68 442.88v-61.44h-312.32v122.88h312.32v-61.44zM537.6 197.12v-61.44h-312.32v122.88h312.32v-61.44zM967.68 197.12v-61.44h-312.32v122.88h312.32v-61.44z" />
<glyph unicode="&#xe949;" glyph-name="accordion2" d="M0 675v-219h64v-202h-64v-252h1024v252h-64v202h64v438h-1024v-219zM938 769v-41h-852v82h852v-41zM938 583v-41h-852v82h852v-41zM874 357v-85h-724v170h724v-85zM938 127.2v-40.8l-422.4-0.2c-232.4 0-424.2 0.4-426 1-3.2 1-3.6 4.6-3.6 41v39.8h852v-40.8z" />
<glyph unicode="&#xe94a;" glyph-name="categories" d="M183.208 813.597v-146.403h145.585v-291.987c0-232.445 0.491-291.987 2.127-291.987 0.981 0 50.382 0 109.597 0h107.471v-147.22h292.805v292.805l-291.987-0.818-0.491-36.314-0.327-36.478h-145.585v292.805h145.585v-145.585h292.805v291.169h-292.805v-71.974h-145.585v145.585l36.478 0.327 36.314 0.491 0.491 146.075 0.327 145.912h-292.805v-146.403z" />
<glyph unicode="&#xe94d;" glyph-name="chart-bar" horiz-adv-x="1097" d="M292.553 374.829v-219.415h-146.276v219.415h146.276zM511.967 667.382v-511.967h-146.276v511.967h146.276zM731.382 521.105v-365.691h-146.276v365.691h146.276zM950.796 740.52v-585.105h-146.276v585.105h146.276zM1023.934 100.561v694.813q0 7.428-5.428 12.856t-12.856 5.428h-914.227q-7.428 0-12.856-5.428t-5.428-12.856v-694.813q0-7.428 5.428-12.856t12.856-5.428h914.227q7.428 0 12.856 5.428t5.428 12.856zM1097.073 795.374v-694.813q0-37.712-26.855-64.567t-64.567-26.855h-914.227q-37.712 0-64.567 26.855t-26.855 64.567v694.813q0 37.712 26.855 64.567t64.567 26.855h914.227q37.712 0 64.567-26.855t26.855-64.567z" />
<glyph unicode="&#xe94e;" glyph-name="history" horiz-adv-x="1088" d="M640 896c247.424 0 448-200.576 448-448s-200.576-448-448-448v96c94.024 0 182.418 36.614 248.902 103.098s103.098 154.878 103.098 248.902c0 94.022-36.614 182.418-103.098 248.902s-154.878 103.098-248.902 103.098c-94.022 0-182.418-36.614-248.902-103.098-51.14-51.138-84.582-115.246-97.306-184.902h186.208l-224-256-224 256h164.57c31.060 217.102 217.738 384 443.43 384zM832 512v-128h-256v320h128v-192z" />
<glyph unicode="&#xe951;" glyph-name="post-sliders2" horiz-adv-x="1274" d="M231.674 861.77c-40.543-11.352-73.441-47.030-80.854-88.036-1.853-9.499-2.548-111.435-2.548-325.502 0-338.244-0.232-328.977 12.742-354.693 12.974-25.484 42.165-49.578 68.807-56.529 13.437-3.707 47.030-3.938 407.283-3.243l392.688 0.695 13.9 6.487c28.959 13.669 51.432 37.3 62.089 66.027l5.097 13.205v327.819c0 311.138-0.232 328.514-4.17 340.329-11.352 33.593-40.080 61.857-73.209 72.051-14.364 4.633-22.472 4.633-403.113 4.402-304.652 0-390.603-0.695-398.711-3.012zM753.173 795.743c6.255-6.255 6.719-8.109 6.719-24.557 0-18.302-3.707-29.423-10.425-32.203-2.085-0.695-12.742-1.39-23.399-1.39-17.839 0-20.156 0.463-25.252 5.792-5.329 5.097-5.792 7.414-5.792 26.643s0.463 21.546 5.792 26.643c5.097 5.329 7.414 5.792 25.484 5.792 18.997 0 20.387-0.232 26.874-6.719zM877.814 798.986c8.572-4.402 9.499-7.182 9.499-30.349 0-17.839-0.463-20.156-5.792-25.252-5.097-5.329-7.414-5.792-26.179-5.792-29.191 0-31.508 2.085-32.434 29.886-0.927 20.619-0.927 21.082 6.024 28.033 6.719 6.487 8.109 6.95 24.789 6.95 10.889 0 20.156-1.39 24.094-3.475zM1008.71 797.596c5.792-4.633 6.024-5.56 6.024-27.569 0-30.581-1.853-32.434-30.349-32.434-16.681 0-21.082 0.695-26.179 4.865-5.792 4.633-6.024 5.792-6.024 26.643 0 20.156 0.463 22.472 5.792 27.569 5.097 5.329 7.414 5.792 25.021 5.792 16.217 0 20.619-0.695 25.716-4.865zM1047.167 402.824c0-262.719-0.232-270.364-4.402-278.936-6.024-11.584-18.766-22.472-29.654-25.484-11.815-3.243-753.636-3.475-765.22-0.232-11.352 3.012-25.252 15.29-30.349 26.411-4.17 9.035-4.402 21.777-4.402 278.936v269.205h834.027v-269.9zM378.787 604.38l-5.792-5.56v-107.033l5.792-5.56 5.56-5.792h245.343c244.88 0 245.343 0 251.598 4.865l6.024 4.633v110.74l-6.024 4.633c-6.255 4.865-6.719 4.865-251.598 4.865h-245.343l-5.56-5.792zM377.629 443.367c-4.633-4.633-4.633-7.645-4.633-138.541v-134.139l5.329-4.865c5.329-5.097 6.255-5.097 92.438-5.097 81.086 0 87.11 0.232 90.585 4.17s3.938 16.912 3.938 139.931c0 128.348-0.232 135.761-4.17 139.236s-13.669 3.938-91.511 3.938c-84.329 0-87.573-0.232-91.975-4.633zM599.341 446.378c-2.317-2.085-1.853-22.009 0.232-25.716 1.622-2.317 31.971-2.78 144.333-2.317l142.248 0.695v27.801l-142.711 0.695c-78.306 0.232-143.406-0.232-144.101-1.158zM600.5 382.668c-3.938-3.938-3.475-23.862 0.463-27.106 2.085-1.853 41.933-2.317 144.101-2.085l141.090 0.695 0.695 12.279c0.463 7.182-0.463 13.9-2.085 15.754-2.317 2.78-24.557 3.243-142.016 3.243-105.412 0-140.163-0.695-142.248-2.78zM600.5 317.799c-3.707-3.707-3.707-23.167 0-26.874 2.085-2.085 36.836-2.78 142.248-2.78 117.459 0 139.7 0.463 142.016 3.243 1.622 1.853 2.548 8.572 2.085 15.754l-0.695 12.279-141.321 0.695c-108.192 0.463-142.248-0.232-144.333-2.317zM599.11 252.004c-2.085-5.097-1.622-20.156 0.463-23.631 1.622-2.317 31.971-2.78 144.333-2.317l142.248 0.695v27.801l-142.711 0.695c-128.811 0.463-142.943 0.232-144.333-3.243zM600.5 190.378c-3.012-3.012-3.707-22.241-0.927-26.874 1.622-2.317 31.971-2.78 144.333-2.317l142.248 0.695 0.695 12.279c0.463 7.182-0.463 13.9-2.085 15.754-2.317 2.78-24.557 3.243-142.016 3.243-105.412 0-140.163-0.695-142.248-2.78zM48.883 435.49l-49.81-49.81 48.883-49.347c27.106-27.106 49.578-48.652 50.273-47.957 0.927 0.695 1.158 45.408 0.927 99.157l-0.695 97.535-49.578-49.578zM1163.005 384.29v-99.62l49.115 48.652c27.106 26.874 49.578 48.883 50.273 49.347 0.695 0.232-21.546 23.167-49.115 50.968l-50.273 50.273v-99.62z" />
<glyph unicode="&#xe952;" glyph-name="social-button" horiz-adv-x="1164" d="M123.904 823.125c-16.384-8.192-33.792-26.283-40.619-42.667-7.168-16.725-7.168-682.325 0-699.051 6.485-15.701 24.576-35.499 40.96-44.032l13.995-7.509 430.080-1.024c303.445-0.683 435.2 0 447.488 2.731 22.187 4.779 43.349 20.139 55.296 40.277l9.216 16.043 1.024 335.872c1.024 374.101 2.048 355.669-22.187 380.587-6.827 6.827-18.432 15.701-25.259 19.456-12.629 6.144-25.6 6.485-454.315 6.485-441.003 0-441.344 0-455.68-7.168zM1011.712 759.979c4.779-4.779 5.461-39.253 5.461-329.045s-0.683-324.267-5.461-329.045c-4.779-4.779-48.811-5.461-432.811-5.461-360.789 0-428.373 0.683-431.787 4.779-5.461 6.485-5.461 652.971 0 659.456 3.413 4.096 76.117 4.779 431.787 4.779 384 0 428.032-0.683 432.811-5.461zM327.339 718.336c-16.725-15.36-17.749-17.408-19.456-36.181-1.024-12.629-3.413-20.48-6.485-21.504-4.437-1.707-22.528 2.048-48.811 10.24-15.019 4.779-46.421 24.917-59.051 37.547-13.995 14.336-19.456 10.24-19.456-13.995 0-15.701 1.707-22.187 8.533-31.403 10.581-14.336 10.581-17.067 0-17.067-6.144 0-8.533-1.707-8.533-6.827 0-10.24 15.019-31.061 29.355-40.96 11.947-8.192 12.288-8.533 4.779-10.24-4.437-1.024-8.533-3.755-9.216-5.803-2.048-5.803 20.48-25.6 33.451-30.037 14.677-5.12 15.701-9.557 4.096-15.019-5.461-2.389-11.947-5.803-15.019-7.168-2.731-1.365-13.995-4.437-24.576-6.827-10.581-2.048-20.139-5.12-21.163-6.485-1.707-3.072 24.235-13.995 33.109-13.995 3.072 0 6.827-1.365 7.851-3.413 3.413-5.461 67.584-4.096 78.848 1.707 5.461 2.731 12.629 5.12 15.701 5.12s6.827 1.707 7.851 3.413c1.024 2.048 4.437 3.413 7.168 3.413 7.509 0 26.965 13.995 48.811 35.157 30.037 29.355 51.541 79.189 51.541 120.149 0 8.192 2.389 12.629 8.533 16.725 4.437 3.072 9.899 8.533 12.288 12.629 3.413 6.827 3.072 7.168-6.827 4.779-12.288-2.731-13.312 0-3.413 10.581 9.216 9.899 5.461 17.067-4.779 9.899-9.216-6.485-24.235-6.485-29.696 0-2.389 2.731-6.485 5.12-8.875 5.12-2.731 0-4.779 1.707-4.779 3.413 0 2.048-9.557 3.413-21.845 3.413-21.504 0-22.528-0.341-39.936-16.384zM712.363 721.749c-5.12-5.803-5.803-19.456-5.803-125.269v-118.784l8.875-7.851 8.533-8.192h231.424l8.533 8.192 8.875 7.851v120.491c0 110.592-0.341 120.832-5.803 124.928-4.779 3.755-32.085 4.437-127.659 4.779-113.323 0-121.856-0.341-126.976-6.144zM786.773 567.467v-59.733l-39.253-2.048v123.563l39.253-2.048v-59.733zM849.92 623.787c3.755-4.437 5.12-4.437 11.264 0 8.533 5.803 40.619 6.827 50.517 1.707 13.995-7.851 19.456-26.624 20.139-70.315 0.341-22.187 0.341-42.667 0.341-45.056-0.341-3.072-5.803-4.096-19.797-3.413l-19.797 1.024-1.707 40.277c-1.365 35.157-2.731 41.301-8.192 45.397-7.168 5.12-17.749 3.413-24.917-3.413-3.413-3.072-7.851-47.787-7.851-81.579 0-1.365-8.875-2.389-19.456-1.707l-19.797 1.024-1.024 56.32c-0.341 30.72 0 58.027 0.683 60.416 2.731 6.485 34.133 5.803 39.595-0.683zM283.307 417.621c0-1.707-4.437-4.096-9.899-5.461-11.947-2.389-32.085-22.528-41.301-40.96-8.192-16.384-8.875-37.547-1.365-52.907 4.096-7.851 5.12-15.701 3.413-28.672-2.731-24.917 7.168-63.488 22.528-86.357 25.6-38.229 67.243-59.051 118.101-59.051 15.019 0 28.672-1.365 29.696-3.413 3.755-5.803 37.888-3.755 53.589 3.072 20.139 9.216 27.989 16.384 36.864 34.475 8.192 15.701 8.533 20.821 5.803 73.387-2.731 58.027-5.461 69.632-21.163 93.867-8.192 12.288-18.432 25.259-22.869 29.013-14.677 12.288-29.696 22.187-33.451 22.187-2.048 0-8.192 2.389-13.995 5.12-6.485 3.755-19.797 5.461-37.888 5.461-20.48 0-31.403 1.707-41.643 6.827-13.995 6.485-46.421 9.216-46.421 3.413zM400.725 365.739c29.355-10.923 43.008-32.085 32.768-51.2-2.389-4.437-7.168-6.485-14.677-6.485-8.875 0-13.653 3.072-24.917 16.043-13.653 15.36-15.019 16.384-30.379 15.701-17.067-0.683-29.013-8.192-29.013-18.432 0-8.192 6.485-11.264 43.691-21.163 50.859-13.653 67.243-27.307 67.243-56.32 0-36.523-29.355-58.709-77.141-58.709-14.336 0-31.061 1.707-37.547 3.755-34.133 11.605-55.296 46.421-37.547 62.464 10.24 9.216 24.235 5.803 33.451-8.192 14.336-22.187 21.504-27.307 39.595-27.307 13.653 0 18.432 1.707 26.624 9.899 7.851 8.192 9.216 11.605 6.827 18.091-2.731 8.192-9.216 10.923-60.757 26.283-27.648 8.533-43.349 21.163-47.104 38.229-5.803 25.941 7.509 45.739 37.888 57.685 21.845 8.533 47.787 8.533 70.997-0.341zM703.829 397.824c-19.456-6.827-27.989-23.211-27.989-53.248 0-22.869-3.413-29.696-15.701-29.696-10.923 0-13.995-6.485-12.288-26.283 1.365-17.408 1.707-18.091 10.923-18.091 5.461 0 10.923-2.048 12.629-4.096 1.365-2.389 3.072-31.403 3.413-64.171s0.683-62.464 0.683-65.536c0.341-5.461 3.755-6.144 25.941-6.144h25.6v63.488c0 37.205 1.365 65.877 3.413 69.973 2.731 5.12 7.509 6.485 20.821 6.485h17.067l-1.024 21.504-1.024 21.163-16.043 1.024c-8.533 0.683-17.749 3.413-19.797 5.803-5.803 6.827-1.365 35.84 5.461 35.84 2.731 0 4.779 1.707 4.779 3.755 0 2.389 5.12 3.413 13.312 2.389 11.264-1.024 13.995 0 15.36 5.803 4.096 14.336 2.048 31.744-3.413 33.792-9.899 3.755-47.104 1.707-62.123-3.755z" />
<glyph unicode="&#xe958;" glyph-name="mobile" d="M736 960h-448c-52.8 0-96-43.2-96-96v-832c0-52.8 43.2-96 96-96h448c52.8 0 96 43.2 96 96v832c0 52.8-43.2 96-96 96zM384 912h256v-32h-256v32zM512 0c-35.346 0-64 28.654-64 64s28.654 64 64 64 64-28.654 64-64-28.654-64-64-64zM768 192h-512v640h512v-640z" />
<glyph unicode="&#xe95a;" glyph-name="tablet" d="M800 960h-640c-52.8 0-96-43.2-96-96v-832c0-52.8 43.2-96 96-96h640c52.8 0 96 43.2 96 96v832c0 52.8-43.2 96-96 96zM480-32c-17.672 0-32 14.326-32 32s14.328 32 32 32 32-14.326 32-32-14.328-32-32-32zM768 64h-576v768h576v-768z" />
<glyph unicode="&#xe970;" glyph-name="comments" horiz-adv-x="1152" d="M480 832c-50.666 0-99.582-7.95-145.386-23.628-42.924-14.694-81.114-35.436-113.502-61.646-60.044-48.59-93.112-110.802-93.112-175.174 0-35.99 10.066-70.948 29.92-103.898 20.686-34.34 51.898-65.794 90.26-90.958 30.44-19.968 50.936-51.952 56.362-87.95 0.902-5.99 1.63-12.006 2.18-18.032 2.722 2.52 5.424 5.114 8.114 7.794 24.138 24.040 56.688 37.312 90.322 37.312 5.348 0 10.718-0.336 16.094-1.018 19.36-2.452 39.124-3.696 58.748-3.696 50.666 0 99.58 7.948 145.384 23.628 42.926 14.692 81.116 35.434 113.504 61.644 60.046 48.59 93.112 110.802 93.112 175.174s-33.066 126.582-93.112 175.174c-32.388 26.212-70.578 46.952-113.504 61.646-45.804 15.678-94.718 23.628-145.384 23.628zM480 960v0c265.096 0 480-173.914 480-388.448s-214.904-388.448-480-388.448c-25.458 0-50.446 1.62-74.834 4.71-103.106-102.694-222.172-121.108-341.166-123.814v25.134c64.252 31.354 116 88.466 116 153.734 0 9.106-0.712 18.048-2.030 26.794-108.558 71.214-177.97 179.988-177.97 301.89 0 214.534 214.904 388.448 480 388.448zM996 89.314c0-55.942 36.314-104.898 92-131.772v-21.542c-103.126 2.318-197.786 18.102-287.142 106.126-21.14-2.65-42.794-4.040-64.858-4.040-95.47 0-183.408 25.758-253.614 69.040 144.674 0.506 281.26 46.854 384.834 130.672 52.208 42.252 93.394 91.826 122.414 147.348 30.766 58.866 46.366 121.582 46.366 186.406 0 10.448-0.45 20.836-1.258 31.168 72.57-59.934 117.258-141.622 117.258-231.676 0-104.488-60.158-197.722-154.24-258.764-1.142-7.496-1.76-15.16-1.76-22.966z" />
<glyph unicode="&#xe986;" glyph-name="search" d="M992.262 88.604l-242.552 206.294c-25.074 22.566-51.89 32.926-73.552 31.926 57.256 67.068 91.842 154.078 91.842 249.176 0 212.078-171.922 384-384 384-212.076 0-384-171.922-384-384s171.922-384 384-384c95.098 0 182.108 34.586 249.176 91.844-1-21.662 9.36-48.478 31.926-73.552l206.294-242.552c35.322-39.246 93.022-42.554 128.22-7.356s31.892 92.898-7.354 128.22zM384 320c-141.384 0-256 114.616-256 256s114.616 256 256 256 256-114.616 256-256-114.614-256-256-256z" />
<glyph unicode="&#xe989;" glyph-name="enlarge" d="M1024 960h-416l160-160-192-192 96-96 192 192 160-160zM1024-64v416l-160-160-192 192-96-96 192-192-160-160zM0-64h416l-160 160 192 192-96 96-192-192-160 160zM0 960v-416l160 160 192-192 96 96-192 192 160 160z" />
<glyph unicode="&#xe992;" glyph-name="equalizer" d="M448 832v16c0 26.4-21.6 48-48 48h-160c-26.4 0-48-21.6-48-48v-16h-192v-128h192v-16c0-26.4 21.6-48 48-48h160c26.4 0 48 21.6 48 48v16h576v128h-576zM256 704v128h128v-128h-128zM832 528c0 26.4-21.6 48-48 48h-160c-26.4 0-48-21.6-48-48v-16h-576v-128h576v-16c0-26.4 21.6-48 48-48h160c26.4 0 48 21.6 48 48v16h192v128h-192v16zM640 384v128h128v-128h-128zM448 208c0 26.4-21.6 48-48 48h-160c-26.4 0-48-21.6-48-48v-16h-192v-128h192v-16c0-26.4 21.6-48 48-48h160c26.4 0 48 21.6 48 48v16h576v128h-576v16zM256 64v128h128v-128h-128z" />
<glyph unicode="&#xe993;" glyph-name="equalizer2" d="M896 512h16c26.4 0 48 21.6 48 48v160c0 26.4-21.6 48-48 48h-16v192h-128v-192h-16c-26.4 0-48-21.6-48-48v-160c0-26.4 21.6-48 48-48h16v-576h128v576zM768 704h128v-128h-128v128zM592 128c26.4 0 48 21.6 48 48v160c0 26.4-21.6 48-48 48h-16v576h-128v-576h-16c-26.4 0-48-21.6-48-48v-160c0-26.4 21.6-48 48-48h16v-192h128v192h16zM448 320h128v-128h-128v128zM272 512c26.4 0 48 21.6 48 48v160c0 26.4-21.6 48-48 48h-16v192h-128v-192h-16c-26.4 0-48-21.6-48-48v-160c0-26.4 21.6-48 48-48h16v-576h128v576h16zM128 704h128v-128h-128v128z" />
<glyph unicode="&#xe9b8;" glyph-name="clipboard" d="M928 832h-288c0 70.692-57.306 128-128 128-70.692 0-128-57.308-128-128h-288c-17.672 0-32-14.328-32-32v-832c0-17.674 14.328-32 32-32h832c17.674 0 32 14.326 32 32v832c0 17.672-14.326 32-32 32zM512 896c35.346 0 64-28.654 64-64s-28.654-64-64-64c-35.346 0-64 28.654-64 64s28.654 64 64 64zM896 0h-768v768h128v-96c0-17.672 14.328-32 32-32h448c17.674 0 32 14.328 32 32v96h128v-768zM448 101.49l-205.254 237.254 58.508 58.51 146.746-114.744 274.742 242.744 58.514-58.508z" />
<glyph unicode="&#xe9b9;" glyph-name="list-numbered" d="M384 128h640v-128h-640zM384 512h640v-128h-640zM384 896h640v-128h-640zM192 960v-256h-64v192h-64v64zM128 434v-50h128v-64h-192v146l128 60v50h-128v64h192v-146zM256 256v-320h-192v64h128v64h-128v64h128v64h-128v64z" />
<glyph unicode="&#xe9ba;" glyph-name="list" d="M0 960h256v-256h-256zM384 896h640v-128h-640zM0 576h256v-256h-256zM384 512h640v-128h-640zM0 192h256v-256h-256zM384 128h640v-128h-640z" />
<glyph unicode="&#xe9bc;" glyph-name="tree" d="M976 192h-16v208c0 61.756-50.242 112-112 112h-272v128h16c26.4 0 48 21.6 48 48v160c0 26.4-21.6 48-48 48h-160c-26.4 0-48-21.6-48-48v-160c0-26.4 21.6-48 48-48h16v-128h-272c-61.756 0-112-50.244-112-112v-208h-16c-26.4 0-48-21.6-48-48v-160c0-26.4 21.6-48 48-48h160c26.4 0 48 21.6 48 48v160c0 26.4-21.6 48-48 48h-16v192h256v-192h-16c-26.4 0-48-21.6-48-48v-160c0-26.4 21.6-48 48-48h160c26.4 0 48 21.6 48 48v160c0 26.4-21.6 48-48 48h-16v192h256v-192h-16c-26.4 0-48-21.6-48-48v-160c0-26.4 21.6-48 48-48h160c26.4 0 48 21.6 48 48v160c0 26.4-21.6 48-48 48zM192 0h-128v128h128v-128zM576 0h-128v128h128v-128zM448 704v128h128v-128h-128zM960 0h-128v128h128v-128z" />
<glyph unicode="&#xe9cb;" glyph-name="link" d="M440.236 324.234c-13.31 0-26.616 5.076-36.77 15.23-95.134 95.136-95.134 249.934 0 345.070l192 192c46.088 46.086 107.36 71.466 172.534 71.466s126.448-25.38 172.536-71.464c95.132-95.136 95.132-249.934 0-345.070l-87.766-87.766c-20.308-20.308-53.23-20.308-73.54 0-20.306 20.306-20.306 53.232 0 73.54l87.766 87.766c54.584 54.586 54.584 143.404 0 197.99-26.442 26.442-61.6 41.004-98.996 41.004s-72.552-14.562-98.996-41.006l-192-191.998c-54.586-54.586-54.586-143.406 0-197.992 20.308-20.306 20.306-53.232 0-73.54-10.15-10.152-23.462-15.23-36.768-15.23zM256-52c-65.176 0-126.45 25.38-172.534 71.464-95.134 95.136-95.134 249.934 0 345.070l87.764 87.764c20.308 20.306 53.234 20.306 73.54 0 20.308-20.306 20.308-53.232 0-73.54l-87.764-87.764c-54.586-54.586-54.586-143.406 0-197.992 26.44-26.44 61.598-41.002 98.994-41.002s72.552 14.562 98.998 41.006l192 191.998c54.584 54.586 54.584 143.406 0 197.992-20.308 20.308-20.306 53.232 0 73.54 20.306 20.306 53.232 20.306 73.54-0.002 95.132-95.134 95.132-249.932 0.002-345.068l-192.002-192c-46.090-46.088-107.364-71.466-172.538-71.466z" />
<glyph unicode="&#xe9cd;" glyph-name="attachment" d="M665.832 632.952l-64.952 64.922-324.81-324.742c-53.814-53.792-53.814-141.048 0-194.844 53.804-53.792 141.060-53.792 194.874 0l389.772 389.708c89.714 89.662 89.714 235.062 0 324.726-89.666 89.704-235.112 89.704-324.782 0l-409.23-409.178c-0.29-0.304-0.612-0.576-0.876-0.846-125.102-125.096-125.102-327.856 0-452.906 125.054-125.056 327.868-125.056 452.988 0 0.274 0.274 0.516 0.568 0.82 0.876l0.032-0.034 279.332 279.292-64.986 64.92-279.33-279.262c-0.296-0.268-0.564-0.57-0.846-0.844-89.074-89.058-233.98-89.058-323.076 0-89.062 89.042-89.062 233.922 0 322.978 0.304 0.304 0.604 0.582 0.888 0.846l-0.046 0.060 409.28 409.166c53.712 53.738 141.144 53.738 194.886 0 53.712-53.734 53.712-141.148 0-194.84l-389.772-389.7c-17.936-17.922-47.054-17.922-64.972 0-17.894 17.886-17.894 47.032 0 64.92l324.806 324.782z" />
<glyph unicode="&#xe9ce;" glyph-name="eye" d="M512 768c-223.318 0-416.882-130.042-512-320 95.118-189.958 288.682-320 512-320 223.312 0 416.876 130.042 512 320-95.116 189.958-288.688 320-512 320zM764.45 598.296c60.162-38.374 111.142-89.774 149.434-150.296-38.292-60.522-89.274-111.922-149.436-150.296-75.594-48.218-162.89-73.704-252.448-73.704-89.56 0-176.858 25.486-252.452 73.704-60.158 38.372-111.138 89.772-149.432 150.296 38.292 60.524 89.274 111.924 149.434 150.296 3.918 2.5 7.876 4.922 11.86 7.3-9.96-27.328-15.41-56.822-15.41-87.596 0-141.382 114.616-256 256-256 141.382 0 256 114.618 256 256 0 30.774-5.452 60.268-15.408 87.598 3.978-2.378 7.938-4.802 11.858-7.302v0zM512 544c0-53.020-42.98-96-96-96s-96 42.98-96 96 42.98 96 96 96 96-42.982 96-96z" />
<glyph unicode="&#xe9d1;" glyph-name="eye-blocked" d="M945.942 945.942c-18.746 18.744-49.136 18.744-67.882 0l-202.164-202.164c-51.938 15.754-106.948 24.222-163.896 24.222-223.318 0-416.882-130.042-512-320 41.122-82.124 100.648-153.040 173.022-207.096l-158.962-158.962c-18.746-18.746-18.746-49.136 0-67.882 9.372-9.374 21.656-14.060 33.94-14.060s24.568 4.686 33.942 14.058l864 864c18.744 18.746 18.744 49.138 0 67.884zM416 640c42.24 0 78.082-27.294 90.92-65.196l-121.724-121.724c-37.902 12.838-65.196 48.68-65.196 90.92 0 53.020 42.98 96 96 96zM110.116 448c38.292 60.524 89.274 111.924 149.434 150.296 3.918 2.5 7.876 4.922 11.862 7.3-9.962-27.328-15.412-56.822-15.412-87.596 0-54.89 17.286-105.738 46.7-147.418l-60.924-60.924c-52.446 36.842-97.202 83.882-131.66 138.342zM768 518c0 27.166-4.256 53.334-12.102 77.898l-321.808-321.808c24.568-7.842 50.742-12.090 77.91-12.090 141.382 0 256 114.618 256 256zM830.026 670.026l-69.362-69.362c1.264-0.786 2.53-1.568 3.786-2.368 60.162-38.374 111.142-89.774 149.434-150.296-38.292-60.522-89.274-111.922-149.436-150.296-75.594-48.218-162.89-73.704-252.448-73.704-38.664 0-76.902 4.76-113.962 14.040l-76.894-76.894c59.718-21.462 123.95-33.146 190.856-33.146 223.31 0 416.876 130.042 512 320-45.022 89.916-112.118 166.396-193.974 222.026z" />
<glyph unicode="&#xe9d8;" glyph-name="star-half" d="M1024 562.95l-353.78 51.408-158.22 320.582-158.216-320.582-353.784-51.408 256-249.538-60.432-352.352 316.432 166.358 316.432-166.358-60.434 352.352 256.002 249.538zM512 206.502l-0.942-0.496 0.942 570.768 111.736-226.396 249.836-36.304-180.788-176.222 42.678-248.83-223.462 117.48z" />
<glyph unicode="&#xea0b;" glyph-name="minus" d="M0 544v-192c0-17.672 14.328-32 32-32h960c17.672 0 32 14.328 32 32v192c0 17.672-14.328 32-32 32h-960c-17.672 0-32-14.328-32-32z" />
<glyph unicode="&#xea0c;" glyph-name="info" d="M448 656c0 26.4 21.6 48 48 48h32c26.4 0 48-21.6 48-48v-32c0-26.4-21.6-48-48-48h-32c-26.4 0-48 21.6-48 48v32zM640 192h-256v64h64v192h-64v64h192v-256h64zM512 960c-282.77 0-512-229.23-512-512s229.23-512 512-512 512 229.23 512 512-229.23 512-512 512zM512 32c-229.75 0-416 186.25-416 416s186.25 416 416 416 416-186.25 416-416-186.25-416-416-416z" />
<glyph unicode="&#xea0f;" glyph-name="cross" d="M1014.662 137.34c-0.004 0.004-0.008 0.008-0.012 0.010l-310.644 310.65 310.644 310.65c0.004 0.004 0.008 0.006 0.012 0.010 3.344 3.346 5.762 7.254 7.312 11.416 4.246 11.376 1.824 24.682-7.324 33.83l-146.746 146.746c-9.148 9.146-22.45 11.566-33.828 7.32-4.16-1.55-8.070-3.968-11.418-7.31 0-0.004-0.004-0.006-0.008-0.010l-310.648-310.652-310.648 310.65c-0.004 0.004-0.006 0.006-0.010 0.010-3.346 3.342-7.254 5.76-11.414 7.31-11.38 4.248-24.682 1.826-33.83-7.32l-146.748-146.748c-9.148-9.148-11.568-22.452-7.322-33.828 1.552-4.16 3.97-8.072 7.312-11.416 0.004-0.002 0.006-0.006 0.010-0.010l310.65-310.648-310.65-310.652c-0.002-0.004-0.006-0.006-0.008-0.010-3.342-3.346-5.76-7.254-7.314-11.414-4.248-11.376-1.826-24.682 7.322-33.83l146.748-146.746c9.15-9.148 22.452-11.568 33.83-7.322 4.16 1.552 8.070 3.97 11.416 7.312 0.002 0.004 0.006 0.006 0.010 0.010l310.648 310.65 310.648-310.65c0.004-0.002 0.008-0.006 0.012-0.008 3.348-3.344 7.254-5.762 11.414-7.314 11.378-4.246 24.684-1.826 33.828 7.322l146.746 146.748c9.148 9.148 11.57 22.454 7.324 33.83-1.552 4.16-3.97 8.068-7.314 11.414z" />
<glyph unicode="&#xea10;" glyph-name="checkmark" d="M864 832l-480-480-224 224-160-160 384-384 640 640z" />
<glyph unicode="&#xea1e;" glyph-name="stop2" d="M128 832h768v-768h-768z" />
<glyph unicode="&#xea34;" glyph-name="arrow-right" d="M992 448l-480 480v-288h-512v-384h512v-288z" />
</font>
</defs>
</svg>
